<?xml version="1.0" standalone="no"?>
<!DOCTYPE svg PUBLIC "-//W3C//DTD SVG 1.1//EN" "http://www.w3.org/Graphics/SVG/1.1/DTD/svg11.dtd" >
<svg xmlns="http://www.w3.org/2000/svg" xmlns:xlink="http://www.w3.org/1999/xlink" version="1.1">
<metadata>
Created by FontForge 20170731 at Fri Mar  5 16:26:06 2021
 By Aleksey,,,
Designed &#38; produced by Jason Smith.Copyright Fontsmith 2002      http://www.fontsmith.com
</metadata>
<defs>
<font id="FSAlbert-Regular" horiz-adv-x="1126" >
  <font-face 
    font-family="FSAlbert"
    font-weight="400"
    font-stretch="normal"
    units-per-em="2048"
    panose-1="2 0 6 3 4 0 0 2 0 4"
    ascent="1577"
    descent="-471"
    x-height="989"
    cap-height="1411"
    bbox="-401 -451 2048 1872"
    underline-thickness="102"
    underline-position="-307"
    unicode-range="U+0020-FB02"
  />
<missing-glyph horiz-adv-x="2048" 
 />
    <glyph glyph-name=".notdef" horiz-adv-x="2048" 
 />
    <glyph glyph-name=".null" horiz-adv-x="0" 
 />
    <glyph glyph-name="nonmarkingreturn" horiz-adv-x="682" 
 />
    <glyph glyph-name="space" unicode=" " horiz-adv-x="475" 
 />
    <glyph glyph-name="exclam" unicode="!" horiz-adv-x="505" 
d="M377 1370l-21 -1042q0 -17 -7.5 -24t-26.5 -7h-72q-21 0 -29 6.5t-8 24.5l-18 1044v2q0 21 8 29t26 8h113q22 0 28.5 -9t6.5 -28v-4zM399 88q0 -51 -36 -83t-80 -32q-46 0 -82.5 31t-36.5 82q0 53 35 83t84 30q47 0 81.5 -30t34.5 -81z" />
    <glyph glyph-name="quotedbl" unicode="&#x22;" horiz-adv-x="645" 
d="M535 1399l-7 -291q0 -37 -34 -37h-80q-19 0 -26 8.5t-7 28.5l-6 293v2q0 18 7 25.5t26 7.5h94q19 0 26 -7.5t7 -25.5v-4zM268 1399l-6 -291q0 -37 -35 -37h-80q-18 0 -25 8t-7 29l-6 293v2q0 18 6.5 25.5t25.5 7.5h95q19 0 25.5 -7.5t6.5 -25.5v-4z" />
    <glyph glyph-name="numbersign" unicode="#" horiz-adv-x="1140" 
d="M1171 942l-10 -80q-3 -18 -11.5 -24.5t-27.5 -6.5h-217l-43 -284h213q18 0 23.5 -6t5.5 -19v-12l-6 -70q-1 -20 -10.5 -26t-32.5 -6h-217l-58 -371q-3 -21 -14 -29t-37 -8h-84q-19 0 -26 5t-7 18q0 10 2 18l62 367h-287l-61 -367q-3 -23 -14 -32t-40 -9h-77
q-21 0 -29 6.5t-8 20.5q0 10 2 18l57 363h-203q-30 0 -30 24q0 2 1 6.5t1 7.5l10 68q3 19 12.5 26t36.5 7h201l43 284h-213q-29 0 -29 25q0 2 1 6t1 6l10 70q3 18 10 23.5t27 5.5h219l62 413q3 17 9.5 24t21.5 7h102q20 0 26.5 -5t6.5 -17q0 -13 -2 -21l-62 -401h279l63 411
q3 20 10.5 26.5t26.5 6.5h98q33 0 33 -25q0 -2 -1 -6.5t-1 -7.5l-59 -405h215q26 0 26 -21v-4zM741 831h-282l-45 -284h282z" />
    <glyph glyph-name="dollar" unicode="$" 
d="M1016 379q0 -164 -101 -264.5t-264 -126.5v-152q0 -19 -1.5 -26t-10 -12t-27.5 -5h-32q-24 0 -30.5 9t-6.5 34v144h-19q-152 0 -325 57q-31 11 -31 33q0 4 4 20l27 90q7 23 26 23q15 0 25 -4q166 -60 285 -60h8v525l-154 81q-106 56 -165.5 139.5t-59.5 190.5
q0 103 55 183.5t139 123.5t185 52v163q0 33 30 33h43q21 0 28 -7t7 -28v-159q133 -5 271 -62q30 -10 30 -35v-4q0 -10 -2 -14l-30 -82q-9 -22 -27 -22q-8 0 -14 2q-5 2 -15.5 5t-15.5 5q-104 43 -197 51v-479l80 -41q88 -45 147.5 -93.5t98.5 -122.5t39 -165zM543 860v418
q-78 -14 -121 -49q-70 -56 -70 -135q0 -46 14.5 -82t44.5 -64t58.5 -46.5t73.5 -41.5zM836 369q0 79 -53 142.5t-132 94.5v-454q83 22 134 76t51 141z" />
    <glyph glyph-name="percent" unicode="%" horiz-adv-x="2048" 
d="M961 1116q0 -86 -27 -155.5t-88 -115.5t-148 -46q-67 0 -119 25.5t-83.5 69.5t-47.5 99.5t-16 120.5q0 135 70 228.5t200 93.5q89 0 149 -46.5t85 -116t25 -157.5zM1579 1364q0 -12 -8 -25l-967 -1349q-14 -17 -22 -17q-11 0 -35 17l-55 41q-15 9 -15 24q0 17 10 29
l959 1341q14 17 27 17q6 0 32 -15l56 -34q18 -12 18 -29zM1622 297q0 -86 -26.5 -155.5t-87.5 -115.5t-148 -46q-67 0 -119 25.5t-83.5 69.5t-47.5 99.5t-16 120.5q0 86 28 157t91 117.5t151 46.5q67 0 118 -26t81 -71.5t44.5 -101t14.5 -120.5zM825 1114q0 36 -5 69.5
t-17.5 69.5t-39.5 58t-65 22q-39 0 -66 -21t-40 -56t-18 -68t-5 -70q0 -34 1.5 -59t9 -58t21 -53.5t39 -35.5t60.5 -15q37 0 63 22t38.5 57.5t18 69t5.5 68.5zM1487 295q0 36 -5 69.5t-17.5 69.5t-39.5 58t-65 22q-39 0 -66 -21t-40 -56t-18 -68t-5 -70q0 -34 1.5 -59t9 -58
t21 -53.5t39 -35.5t60.5 -15q37 0 63 22t38.5 57.5t18 69t5.5 68.5z" />
    <glyph glyph-name="ampersand" unicode="&#x26;" horiz-adv-x="1372" 
d="M1372 104q0 -4 -4 -20l-25 -72q-8 -24 -32 -24q-7 0 -27 4q-78 16 -163.5 62t-151.5 112q-206 -186 -469 -186q-180 0 -303 110.5t-123 284.5q0 59 20.5 114.5t49.5 96.5t78.5 85.5t89 73t100.5 68.5l-64 76q-58 68 -86.5 127t-28.5 131q0 120 94 204.5t230 84.5
q138 0 229 -79.5t91 -205.5q0 -52 -19.5 -100.5t-57.5 -92.5t-76.5 -77.5t-92.5 -73.5l354 -418q140 196 160 453q1 20 7 26t22 6h90q26 0 26 -26v-6q-18 -321 -207 -559q105 -103 265 -154q24 -8 24 -25zM717 1147q0 67 -43.5 111.5t-112.5 44.5q-66 0 -109.5 -43.5
t-43.5 -108.5q0 -80 88 -182l53 -62q78 58 123 116t45 124zM872 266l-376 447q-112 -80 -174 -155.5t-62 -164.5q0 -116 79.5 -190t192.5 -74q196 0 340 137z" />
    <glyph glyph-name="quotesingle" unicode="'" horiz-adv-x="645" 
d="M397 1399l-6 -291q0 -37 -35 -37h-80q-18 0 -25 8t-7 29l-6 293v2q0 18 6.5 25.5t25.5 7.5h95q19 0 25.5 -7.5t6.5 -25.5v-4z" />
    <glyph glyph-name="parenleft" unicode="(" horiz-adv-x="665" 
d="M561 1411q0 -10 -10 -27q-125 -189 -182 -346q-72 -201 -72 -450q0 -232 70 -424q58 -159 176 -324q10 -17 10 -24q0 -12 -16 -25l-52 -35q-13 -10 -24 -10q-9 0 -27 21q-309 411 -309 847q0 417 321 838q13 16 25 16q9 0 21 -6l57 -32q12 -7 12 -19z" />
    <glyph glyph-name="parenright" unicode=")" horiz-adv-x="663" 
d="M539 604q0 -417 -320 -837q-14 -17 -26 -17q-10 0 -19 6l-57 33q-13 7 -13 21q0 7 9 22q128 196 182 346q74 207 74 451q0 232 -70 424q-57 157 -176 323q-10 17 -10 25q0 16 16 26l53 35q11 8 23 8q11 0 28 -20q306 -407 306 -846z" />
    <glyph glyph-name="asterisk" unicode="*" horiz-adv-x="681" 
d="M616 1198q0 -19 -28 -22l-187 -23l136 -137q12 -12 12 -25q0 -12 -19 -28l-57 -45q-20 -13 -27 -13q-11 0 -20 21l-84 196l-82 -200q-6 -19 -18 -19q-8 0 -21 10l-74 54q-12 7 -12 20q0 12 17 29l139 139l-201 21q-8 1 -11.5 2.5t-6 4.5t-2.5 9q0 8 2 14l32 103
q6 18 23 18q9 0 18 -6l170 -104l-41 202q-2 8 -2 19q0 18 27 18h84q19 0 26 -4t7 -14q0 -13 -2 -19l-41 -202l172 104q9 6 20 6q13 0 21 -24l26 -84q4 -16 4 -21z" />
    <glyph glyph-name="plus" unicode="+" horiz-adv-x="1044" 
d="M958 506q0 -26 -8 -35.5t-32 -9.5h-312v-332q0 -26 -8.5 -34.5t-30.5 -8.5h-86q-22 0 -29.5 8t-7.5 31v336h-311q-26 0 -34.5 8.5t-8.5 30.5v75q0 22 8 29.5t31 7.5h315v332q0 28 8 36.5t33 8.5h76q25 0 35 -8.5t10 -32.5v-336h307q28 0 36.5 -8t8.5 -33v-65z" />
    <glyph glyph-name="comma" unicode="," horiz-adv-x="411" 
d="M336 63q0 -88 -47.5 -174t-120.5 -137q-18 -12 -29 -12t-24 16l-15 17q-8 12 -8 18q0 7 12 19q72 72 72 135q0 27 -35 72.5t-35 76.5q0 47 32 78t79 31q52 0 85.5 -43t33.5 -97z" />
    <glyph glyph-name="hyphen" unicode="-" horiz-adv-x="567" 
d="M483 502q0 -25 -8.5 -35t-32.5 -10h-313q-27 0 -36 9t-9 30v84q0 21 8.5 28.5t32.5 7.5h313q28 0 36.5 -8t8.5 -33v-73z" />
    <glyph glyph-name="period" unicode="." horiz-adv-x="417" 
d="M342 90q0 -49 -37 -83t-84 -34q-48 0 -85.5 32.5t-37.5 82.5q0 52 35.5 83.5t87.5 31.5q49 0 85 -31t36 -82z" />
    <glyph glyph-name="slash" unicode="/" horiz-adv-x="669" 
d="M639 1417q0 -11 -6 -26l-406 -1371q-7 -25 -18 -32.5t-37 -7.5h-80q-31 0 -31 18l5 25l411 1372q6 24 15.5 32.5t33.5 8.5h84q29 0 29 -19z" />
    <glyph glyph-name="zero" unicode="0" 
d="M1049 711q0 -103 -14.5 -201.5t-50.5 -196t-90.5 -170.5t-140 -118t-192.5 -45t-192 44.5t-138.5 116t-89 168.5t-49.5 194.5t-14 201.5q0 102 15 200.5t51.5 196t91 170.5t140 118.5t191.5 45.5q77 0 143 -23t115 -63.5t87.5 -96.5t63.5 -119.5t42 -136.5t24 -143
t7 -143zM850 709q0 79 -7.5 153t-27.5 151.5t-51 134t-82.5 92.5t-116.5 36q-67 0 -119 -36.5t-83.5 -93.5t-51.5 -134.5t-27.5 -151t-7.5 -151.5q0 -79 7 -152.5t27 -151.5t51 -134.5t83 -93t119 -36.5t119 36.5t83 93.5t51 135t27 151t7 152z" />
    <glyph glyph-name="one" unicode="1" 
d="M725 49q0 -26 -10 -37.5t-35 -11.5h-90q-27 0 -38 11t-11 38v1159l-297 -182q-17 -10 -29 -10q-19 0 -27 16l-41 68q-8 16 -8 22q0 20 27 35l377 236q28 18 75 18h66q41 0 41 -47v-1315z" />
    <glyph glyph-name="two" unicode="2" 
d="M1004 45q0 -45 -50 -45h-772q-26 0 -35.5 10t-9.5 35v68q0 22 5 34t20 27q49 52 164.5 166t171.5 174q157 168 233 292.5t76 235.5q0 107 -68.5 169.5t-177.5 62.5q-144 0 -293 -86q-12 -6 -20 -6q-17 0 -29 24l-31 66q-6 12 -6 22q0 17 23 33q173 109 383 109
q178 0 297 -99.5t119 -275.5q0 -152 -89 -297t-292 -356q-41 -43 -248 -250h579q27 0 38.5 -9t11.5 -32v-72z" />
    <glyph glyph-name="three" unicode="3" 
d="M991 412q0 -127 -66 -227t-174 -152.5t-237 -52.5q-214 0 -348 71q-25 13 -25 29q0 2 4 14l33 86q6 17 25 17q6 0 18 -4q137 -62 279 -62q133 0 215 76.5t82 204.5q0 93 -47.5 156.5t-121 91.5t-167.5 28h-60q-34 0 -34 37v70q0 18 6.5 26t25.5 8h60q132 0 208 61t76 183
q0 104 -68 159.5t-179 55.5q-125 0 -250 -69q-15 -9 -23 -9q-11 0 -20 21l-33 74q-4 12 -4 14q0 12 18 24q156 93 344 93q107 0 199 -40t151.5 -121.5t59.5 -189.5t-66 -197t-165 -120q125 -30 204.5 -128t79.5 -228z" />
    <glyph glyph-name="four" unicode="4" 
d="M983 39q0 -39 -37 -39h-106q-21 0 -31 9t-10 32v287h-664q-26 0 -35.5 12t-9.5 37v49q0 34 23 86l391 858q18 41 51 41h117q22 0 22 -18q0 -17 -8 -33l-391 -875h504v328q0 23 10.5 31t32.5 8h100q22 0 31.5 -8t9.5 -31v-774z" />
    <glyph glyph-name="five" unicode="5" 
d="M1012 430q0 -140 -67 -243t-180 -155t-257 -52q-170 0 -330 83q-31 16 -31 33q0 9 7 23l32 76q8 22 25 22q11 0 31 -10q140 -70 278 -70q127 0 212 75t85 210q0 142 -88 223q-99 88 -315 88h-129q-62 0 -62 62v569q0 26 10.5 36.5t34.5 10.5h625q24 0 35.5 -9.5
t11.5 -33.5v-72q0 -24 -8.5 -32.5t-34.5 -8.5h-489v-381h61q89 0 167.5 -15.5t148 -50t119.5 -85t79 -125.5t29 -168z" />
    <glyph glyph-name="six" unicode="6" 
d="M1024 465q0 -135 -52 -244.5t-153 -175t-233 -65.5q-102 0 -182.5 33t-133 89.5t-86.5 136.5t-48.5 169t-14.5 192q0 215 59.5 404.5t179.5 302.5q64 61 154 95t191 34q84 0 182 -25q24 -5 24 -29q0 -12 -2 -20l-14 -68q-6 -28 -29 -28q-8 0 -14 2q-63 14 -145 14
q-136 0 -224 -88q-126 -129 -155 -426q61 60 138.5 89.5t154.5 29.5q176 0 289.5 -113t113.5 -309zM827 449q0 77 -21.5 138.5t-75.5 103.5t-134 42q-67 0 -143 -33t-134 -98q0 -8 -1 -23.5t-1 -23.5q0 -197 67 -309.5t204 -112.5q64 0 112.5 29.5t75 78.5t39 101.5
t12.5 106.5z" />
    <glyph glyph-name="seven" unicode="7" 
d="M1022 1303q0 -29 -18 -74l-551 -1188q-20 -41 -64 -41h-115q-32 0 -32 31q0 10 6 22l565 1198h-653q-24 0 -33.5 9.5t-9.5 31.5v78q0 22 8.5 31.5t32.5 9.5h821q25 0 34 -9t9 -32v-67z" />
    <glyph glyph-name="eight" unicode="8" 
d="M1030 401q0 -188 -136.5 -304.5t-334.5 -116.5q-131 0 -235 44t-167 136.5t-63 220.5q0 95 62 186q85 124 243 185q-110 49 -177.5 136.5t-67.5 194.5q0 154 119 253.5t294 99.5q173 0 286.5 -94t113.5 -252q0 -95 -71 -185t-175 -139q154 -64 231.5 -157t77.5 -208z
M772 1087q0 94 -56.5 150.5t-156.5 56.5q-91 0 -151 -57t-60 -145q0 -90 58.5 -151.5t160.5 -111.5q38 19 71 42.5t65 55.5t50.5 73.5t18.5 86.5zM836 385q0 98 -72 170t-217 131q-258 -107 -258 -297q0 -122 82.5 -195t193.5 -73q112 0 191.5 70t79.5 194z" />
    <glyph glyph-name="nine" unicode="9" 
d="M1012 815q0 -220 -62.5 -414t-187.5 -305q-63 -55 -152 -85.5t-188 -30.5q-84 0 -178 24q-25 6 -25 27q0 10 2 16l17 74q6 29 24 29q2 0 6 -1.5t6 -1.5q72 -14 136 -14q154 0 241 90q123 128 152 424q-122 -119 -293 -119q-175 0 -288 113t-113 309q0 135 51.5 244.5
t152 175.5t232.5 66q102 0 182.5 -33t133.5 -89.5t87.5 -137t49 -169.5t14.5 -192zM815 862q0 197 -67 308.5t-205 111.5q-63 0 -111 -29t-74.5 -76.5t-39.5 -100.5t-13 -109q0 -77 22 -139t75.5 -104t132.5 -42q71 0 146 33t132 98q0 5 1 23t1 26z" />
    <glyph glyph-name="colon" unicode=":" horiz-adv-x="438" 
d="M352 895q0 -51 -37.5 -83t-83.5 -32q-47 0 -84.5 31.5t-37.5 83.5q0 53 36.5 85t85.5 32t85 -32t36 -85zM352 96q0 -51 -37.5 -83.5t-83.5 -32.5q-47 0 -84.5 31t-37.5 83q0 53 36.5 84t85.5 31t85 -30t36 -83z" />
    <glyph glyph-name="semicolon" unicode=";" horiz-adv-x="438" 
d="M352 895q0 -51 -37.5 -83t-83.5 -32q-47 0 -84.5 31.5t-37.5 83.5q0 53 36.5 85t85.5 32t85 -32t36 -85zM346 37q0 -86 -46 -160t-122 -127q-18 -12 -28 -12q-12 0 -23 14l-18 23q-7 11 -7 18q0 8 11 19q63 59 63 108q0 22 -31.5 69t-31.5 77q0 48 33 78t81 30
q52 0 85.5 -42t33.5 -95z" />
    <glyph glyph-name="less" unicode="&#x3c;" horiz-adv-x="1044" 
d="M856 377q0 -5 -8 -21l-55 -88q-11 -20 -29 -20q-13 0 -31 12l-545 367q-24 16 -24 43v39q0 28 26 45l551 364q15 12 29 12q15 0 27 -18l53 -86q6 -9 6 -18q0 -17 -16 -27l-445 -291l443 -287q18 -12 18 -26z" />
    <glyph glyph-name="equal" unicode="=" horiz-adv-x="1044" 
d="M862 711q0 -25 -8.5 -35t-32.5 -10h-596q-26 0 -34.5 8.5t-8.5 30.5v69q0 22 8 30.5t31 8.5h596q28 0 36.5 -8t8.5 -33v-61zM862 354q0 -25 -8.5 -35t-32.5 -10h-596q-26 0 -34.5 8.5t-8.5 30.5v70q0 22 8 30.5t31 8.5h596q28 0 36.5 -8t8.5 -33v-62z" />
    <glyph glyph-name="greater" unicode="&#x3e;" horiz-adv-x="1044" 
d="M854 670q0 -26 -29 -45l-549 -365q-18 -12 -30 -12q-15 0 -27 18l-51 86q-6 12 -6 21q0 13 16 24l445 291l-445 289q-16 10 -16 27q0 9 6 18l55 88q14 23 29 23q9 0 27 -11l548 -370q27 -18 27 -43v-39z" />
    <glyph glyph-name="question" unicode="?" horiz-adv-x="862" 
d="M776 1110q0 -75 -33.5 -150.5t-91.5 -138.5l-149 -162q-43 -46 -65 -86t-29 -104q-2 -18 -2 -61v-11q0 -37 -25 -37h-84q-24 0 -29 23q-4 19 -8 80v24q0 37 6 74q17 87 80 150l150 155q110 115 110 219q0 58 -19.5 101t-53.5 66t-72 33.5t-82 10.5q-97 0 -201 -51
q-6 -4 -16 -4q-17 0 -23 19l-24 63q-4 12 -4 16q0 17 14 25q138 72 291 72q150 0 255 -89.5t105 -236.5zM467 88q0 -51 -37 -83t-82 -32q-46 0 -82.5 31t-36.5 82q0 53 35 83t84 30q48 0 83.5 -30t35.5 -81z" />
    <glyph glyph-name="at" unicode="@" horiz-adv-x="1679" 
d="M1575 797q0 -67 -16 -136t-48 -134t-76.5 -116t-106.5 -81.5t-132 -30.5q-85 0 -145 42t-66 132h-2q-85 -137 -225 -137q-111 0 -167 81.5t-56 200.5q0 77 24.5 156t68.5 144.5t112.5 107t148.5 41.5q61 0 112 -32t68 -99l21 82q3 13 9 16.5t21 3.5h58q28 0 28 -20
q0 -2 -1 -5t-1 -5l-94 -406q-14 -68 -14 -121q0 -47 26.5 -73.5t77.5 -26.5q86 0 144.5 70.5t87.5 171.5q24 84 24 178q0 233 -151.5 372.5t-391.5 139.5q-141 0 -268 -62q-167 -85 -258.5 -245.5t-91.5 -356.5q0 -256 157 -406.5t414 -150.5q178 0 340 78q12 4 17 4
q12 0 18 -14l19 -49q4 -12 4 -17q0 -12 -17 -20q-187 -94 -401 -94q-210 0 -376 79t-262.5 230.5t-96.5 353.5q0 165 64 312.5t172 252.5t257 166.5t314 61.5q190 0 339 -78.5t233.5 -224.5t84.5 -336zM1028 821q-4 54 -32.5 98t-86.5 44q-56 0 -100.5 -37.5t-68.5 -94
t-36 -112t-12 -103.5q0 -68 25.5 -114.5t85.5 -46.5q108 0 176 147z" />
    <glyph glyph-name="A" unicode="A" horiz-adv-x="1245" 
d="M1227 23q0 -23 -31 -23h-127q-26 0 -37 7t-18 30l-135 381h-531l-141 -383q-8 -21 -17 -28t-30 -7h-121q-23 0 -23 20q0 5 4 21l515 1341q11 29 36 29h109q28 0 37 -25l506 -1343q4 -16 4 -20zM829 559l-163 469q-38 108 -48 146h-2q-13 -44 -51 -150l-168 -465h432z" />
    <glyph glyph-name="B" unicode="B" horiz-adv-x="1165" 
d="M1073 406q0 -94 -28.5 -165.5t-76 -116.5t-117 -73.5t-144.5 -39.5t-166 -11h-344q-25 0 -34 9.5t-9 35.5v1321q0 26 11 35.5t40 9.5h280q480 0 480 -344q0 -116 -64.5 -200.5t-181.5 -108.5v-2q155 -6 254.5 -100.5t99.5 -249.5zM778 1055q0 63 -23.5 106t-67.5 65
t-94.5 31t-117.5 9h-131v-457h139q60 0 107.5 9.5t92.5 34.5t70 76t25 126zM881 408q0 149 -121 215q-91 47 -244 47h-172v-525h178q147 0 223 35q136 61 136 228z" />
    <glyph glyph-name="C" unicode="C" horiz-adv-x="1202" 
d="M1155 102q0 -21 -29 -34q-186 -88 -395 -88q-125 0 -229 37t-177.5 103t-124 157.5t-74.5 199t-24 228.5q0 148 43.5 279.5t123.5 232.5t203.5 160t272.5 59q208 0 375 -93q25 -16 25 -28q0 -10 -6 -25l-33 -76q-9 -20 -25 -20q-9 0 -18 6q-143 82 -305 82
q-97 0 -182 -41t-144 -115q-127 -157 -127 -411q0 -94 17 -179t53 -159.5t88 -128.5t128 -85.5t167 -31.5q75 0 161 20.5t158 55.5q9 6 19 6q17 0 26 -25l27 -63q6 -12 6 -23z" />
    <glyph glyph-name="D" unicode="D" horiz-adv-x="1370" 
d="M1276 698q0 -174 -54.5 -314.5t-156.5 -233.5q-166 -150 -504 -150h-356q-29 0 -40 10.5t-11 38.5v1305q0 31 13 44t46 13h258q200 0 314.5 -21.5t209.5 -80.5q133 -83 207 -240.5t74 -370.5zM1073 700q0 150 -44.5 270.5t-129.5 188.5q-121 98 -360 98h-195v-1105h176
q149 0 243 23.5t161 90.5q149 152 149 434z" />
    <glyph glyph-name="E" unicode="E" horiz-adv-x="1044" 
d="M954 37q0 -19 -9 -28t-32 -9h-714q-26 0 -34.5 8.5t-8.5 34.5v1327q0 22 9 31.5t30 9.5h720q18 0 25.5 -7t7.5 -22v-10l-8 -78q-1 -20 -13.5 -26t-41.5 -6h-539v-449h481q41 0 41 -37v-74q0 -21 -8.5 -28.5t-30.5 -7.5h-483v-516h565q23 0 33 -8t10 -27v-78z" />
    <glyph glyph-name="F" unicode="F" horiz-adv-x="1026" 
d="M948 1374l-8 -80q-1 -20 -13.5 -26t-41.5 -6h-539v-449h481q41 0 41 -37v-74q0 -21 -8.5 -28.5t-30.5 -7.5h-483v-623q0 -26 -8.5 -34.5t-32.5 -8.5h-106q-26 0 -34.5 8.5t-8.5 36.5v1325q0 22 9 31.5t30 9.5h720q33 0 33 -31v-6z" />
    <glyph glyph-name="G" unicode="G" horiz-adv-x="1347" 
d="M1206 150q0 -32 -8.5 -47.5t-36.5 -30.5q-74 -41 -186.5 -66.5t-214.5 -25.5q-163 0 -290 53.5t-207 150.5t-121.5 228.5t-41.5 292.5q0 156 47.5 290t134 232t216.5 153.5t288 55.5q183 0 340 -68q25 -12 25 -29q0 -4 -4 -20l-29 -80q-8 -22 -26 -22q-13 0 -21 4
q-59 24 -138 40.5t-140 16.5q-203 0 -330 -127q-78 -77 -119 -191.5t-41 -250.5q0 -118 27 -220.5t80 -184t142 -128.5t204 -47q158 0 260 51v486h-215q-22 0 -29.5 6.5t-7.5 29.5v78q0 20 8 26.5t29 6.5h366q23 0 31 -8t8 -31v-624z" />
    <glyph glyph-name="H" unicode="H" horiz-adv-x="1349" 
d="M1194 43q0 -43 -39 -43h-111q-40 0 -40 43v623h-660v-623q0 -43 -41 -43h-108q-41 0 -41 43v1327q0 41 41 41h108q41 0 41 -41v-557h660v557q0 41 40 41h111q39 0 39 -41v-1327z" />
    <glyph glyph-name="I" unicode="I" horiz-adv-x="759" 
d="M629 1317q0 -21 -7 -27t-28 -6h-125v-1155h123q35 0 35 -31v-65q0 -18 -6 -25.5t-23 -7.5h-436q-31 0 -31 31v69q0 16 6.5 22.5t24.5 6.5h123v1155h-131q-18 0 -24.5 6t-6.5 23v67q0 31 29 31h442q35 0 35 -29v-65z" />
    <glyph glyph-name="J" unicode="J" horiz-adv-x="790" 
d="M631 473q0 -153 -25.5 -254t-95.5 -160q-93 -77 -270 -77q-64 0 -125 14q-25 6 -25 27q0 2 1 6t1 6l17 84q3 22 24 22q2 0 6 -1t6 -1q58 -10 101 -10q52 0 95.5 17.5t64.5 50.5q40 62 40 229v858h-229q-22 0 -30.5 8.5t-8.5 26.5v61q0 18 8 24.5t31 6.5h375q39 0 39 -39
v-899z" />
    <glyph glyph-name="K" unicode="K" horiz-adv-x="1124" 
d="M1104 16q0 -16 -27 -16h-139q-28 0 -43.5 8t-34.5 31l-512 614h-2v-610q0 -43 -39 -43h-112q-39 0 -39 43v1327q0 41 39 41h112q39 0 39 -41v-594h2l494 608q24 27 57 27h115q24 0 24 -20q0 -8 -6 -17l-524 -641l579 -684q17 -20 17 -33z" />
    <glyph glyph-name="L" unicode="L" horiz-adv-x="929" 
d="M899 35q0 -20 -8 -27.5t-27 -7.5h-667q-41 0 -41 45v1323q0 43 39 43h110q22 0 31.5 -10t9.5 -33v-1216h514q22 0 30.5 -7t8.5 -26v-84z" />
    <glyph glyph-name="M" unicode="M" horiz-adv-x="1716" 
d="M1563 37q0 -21 -8 -29t-29 -8h-117q-21 0 -29 10t-10 37l-35 991h-4l-395 -1013q-10 -25 -37 -25h-70q-16 0 -25 5.5t-16 23.5l-428 1009h-2l-24 -1001q0 -22 -9 -29.5t-32 -7.5h-100q-21 0 -29 7.5t-8 27.5v4l47 1329q1 26 8 34.5t25 8.5h88q24 0 34.5 -6.5t18.5 -24.5
l497 -1116h3l458 1114q8 19 17 26t28 7h95q18 0 24 -8t8 -29l56 -1331v-2v-4z" />
    <glyph glyph-name="N" unicode="N" horiz-adv-x="1423" 
d="M1268 43q0 -25 -8 -34t-27 -9h-94q-35 0 -62 39l-739 1036h-4v-1032q0 -43 -41 -43h-94q-22 0 -31.5 10t-9.5 33v1325q0 43 41 43h82q19 0 30 -6.5t23 -24.5l753 -1058h5v1046q0 24 8.5 33.5t29.5 9.5h99q23 0 31 -9.5t8 -33.5v-1325z" />
    <glyph glyph-name="O" unicode="O" horiz-adv-x="1384" 
d="M1294 715q0 -171 -46 -310.5t-127 -232t-191 -142.5t-238 -50q-274 0 -427.5 192t-153.5 528q0 332 166 534t434 202q185 0 317.5 -92t199 -253.5t66.5 -375.5zM1092 709q0 272 -99.5 420.5t-285.5 148.5q-177 0 -286.5 -158.5t-109.5 -412.5q0 -269 102.5 -420.5
t286.5 -151.5q175 0 283.5 156t108.5 418z" />
    <glyph glyph-name="P" unicode="P" horiz-adv-x="1062" 
d="M999 981q0 -111 -40.5 -198t-111.5 -141t-163.5 -82t-200.5 -28q-3 0 -68.5 1.5t-68.5 1.5v-494q0 -41 -41 -41h-110q-39 0 -39 43v1325q0 43 39 43h268q316 0 446 -156q90 -107 90 -274zM807 977q0 157 -92 223t-256 66h-113v-586q3 0 66 -1t65 -1q155 0 242.5 73.5
t87.5 225.5z" />
    <glyph glyph-name="Q" unicode="Q" horiz-adv-x="1372" 
d="M1333 -133q0 -6 -2 -10l-24 -82q-7 -25 -35 -25q-17 0 -25 2q-54 11 -106.5 34.5t-83 43.5t-84.5 59q-5 4 -25.5 18.5t-26 18.5t-23.5 15.5t-26 15t-25 10.5t-29 9.5t-29 5t-35 2.5q-16 0 -45 -1t-45 -1q-115 0 -209.5 39t-159.5 106t-109.5 158.5t-65 195t-20.5 217.5
t23 220.5t72 201t118.5 164.5t169.5 111t219 41q121 0 220 -40t165.5 -107.5t112 -161t66 -197t20.5 -217.5q0 -214 -79 -392t-240 -268q41 -17 111.5 -55.5t105.5 -54.5q70 -31 125 -49q24 -9 24 -27zM1083 707q0 89 -11.5 168t-39.5 154t-71 129t-111 87t-154 33
q-81 0 -148 -34t-111.5 -90t-75.5 -131t-44.5 -154.5t-13.5 -161.5q0 -111 20 -208.5t62.5 -182t120.5 -134t184 -49.5q102 0 180 50.5t123 135t67.5 183t22.5 205.5z" />
    <glyph glyph-name="R" unicode="R" horiz-adv-x="1136" 
d="M1063 23q0 -23 -27 -23h-123q-44 0 -63 37l-307 536h-197v-530q0 -43 -39 -43h-112q-39 0 -39 43v1323q0 25 9 35t32 10h295q313 0 432 -147q84 -104 84 -267q0 -142 -80 -245t-207 -146l2 -4l334 -559q6 -9 6 -20zM815 995q0 145 -86 208t-252 63h-131v-549h158
q139 0 225 72.5t86 205.5z" />
    <glyph glyph-name="S" unicode="S" horiz-adv-x="1040" 
d="M956 383q0 -97 -38.5 -175.5t-104.5 -127t-151 -74.5t-181 -26q-170 0 -344 57q-28 8 -28 33q0 12 2 18l26 92q8 25 29 25q14 0 24 -4q167 -60 291 -60q74 0 136.5 22t106.5 75.5t44 130.5q0 80 -47 134t-133 99l-260 139q-226 124 -226 332q0 85 37.5 155.5t99.5 115
t139 68.5t159 24q179 0 325 -62q33 -13 33 -35q0 -6 -4 -18l-31 -84q-9 -23 -29 -23q-10 0 -24 7q-138 59 -260 59q-62 0 -116 -18t-93 -62.5t-39 -109.5q0 -73 42.5 -122.5t117.5 -88.5l219 -117q65 -35 112 -69.5t86.5 -80t59.5 -103t20 -126.5z" />
    <glyph glyph-name="T" unicode="T" 
d="M1100 1378l-13 -84q-3 -20 -14.5 -26t-36.5 -6h-383v-1221q0 -22 -8.5 -31.5t-28.5 -9.5h-116q-20 0 -28.5 9.5t-8.5 31.5v1221h-395q-19 0 -26 6.5t-7 25.5v86q0 18 6.5 24.5t24.5 6.5h1001q33 0 33 -27v-6z" />
    <glyph glyph-name="U" unicode="U" horiz-adv-x="1427" 
d="M1278 616q0 -145 -31 -258.5t-96.5 -199.5t-175 -132t-258.5 -46q-131 0 -229 30t-161.5 83t-102 135.5t-54.5 179t-16 221.5v741q0 41 39 41h112q39 0 39 -41v-723q0 -66 3 -115t12 -105t25.5 -95.5t44.5 -78t67 -62t95.5 -38t127.5 -14.5q80 0 141 18.5t100.5 55.5
t65.5 81t39 106t17.5 118.5t4.5 130.5v721q0 41 41 41h111q39 0 39 -41v-754z" />
    <glyph glyph-name="V" unicode="V" horiz-adv-x="1249" 
d="M1212 1389q0 -5 -4 -21l-473 -1329q-14 -39 -53 -39h-96q-22 0 -34.5 9.5t-21.5 33.5l-487 1319q-4 8 -4 22q0 27 33 27h118q30 0 43.5 -8t20.5 -31l389 -1104h4l375 1100q9 27 20.5 35t40.5 8h97q32 0 32 -22z" />
    <glyph glyph-name="W" unicode="W" horiz-adv-x="1830" 
d="M1794 1386q0 -6 -4 -18l-393 -1325q-11 -43 -54 -43h-96q-21 0 -33.5 10t-19.5 35l-279 1061h-2l-280 -1061q-7 -25 -19.5 -35t-35.5 -10h-95q-23 0 -33.5 8.5t-19.5 38.5l-387 1313q-4 16 -4 24q0 27 31 27h127q29 0 42 -9t19 -34l287 -1077h2l276 1079q6 25 18.5 33
t39.5 8h88q40 0 49 -39l282 -1081h5l290 1077q7 25 20 34t38 9h110q31 0 31 -25z" />
    <glyph glyph-name="X" unicode="X" horiz-adv-x="1153" 
d="M1114 23q0 -23 -31 -23h-125q-48 0 -71 41l-316 541h-2l-315 -539q-14 -25 -28.5 -34t-43.5 -9h-108q-31 0 -31 23q0 13 8 24l424 684l-387 637q-6 12 -6 21q0 22 27 22h131q39 0 57 -35l285 -483h2l282 485q18 33 56 33h127q24 0 24 -18q0 -7 -8 -23l-389 -622l430 -699
q8 -13 8 -26z" />
    <glyph glyph-name="Y" unicode="Y" 
d="M1092 1391q0 -12 -9 -27l-413 -807v-520q0 -20 -8 -28.5t-27 -8.5h-121q-19 0 -27 8.5t-8 30.5v514l-438 817q-6 12 -6 21q0 20 31 20h114q52 0 68 -35l336 -663h2l323 657q12 25 24.5 33t39.5 8h86q33 0 33 -20z" />
    <glyph glyph-name="Z" unicode="Z" horiz-adv-x="1107" 
d="M1055 35q0 -19 -7.5 -27t-27.5 -8h-942q-29 0 -29 31v45q0 29 17 53l727 1131v2h-635q-28 0 -36.5 6t-8.5 26v86q0 18 6 24.5t26 6.5h852q21 0 30 -7.5t9 -25.5v-35q0 -40 -16 -65l-729 -1126v-2h727q20 0 28.5 -7t8.5 -26v-82z" />
    <glyph glyph-name="bracketleft" unicode="[" horiz-adv-x="638" 
d="M598 -256q0 -21 -8.5 -30t-32.5 -9h-342q-23 0 -32 10t-9 35v1639q0 26 10.5 36.5t32.5 10.5h338q25 0 34 -8.5t9 -30.5v-68q0 -20 -9 -28.5t-32 -8.5h-207v-1444h207q24 0 32.5 -7.5t8.5 -28.5v-68z" />
    <glyph glyph-name="backslash" unicode="\" horiz-adv-x="714" 
d="M649 -8q0 -19 -28 -19h-84q-24 0 -35 8.5t-17 32.5l-409 1387q-4 16 -4 22q0 21 30 21h80q26 0 37.5 -8t18.5 -33l405 -1385q6 -15 6 -26z" />
    <glyph glyph-name="bracketright" unicode="]" horiz-adv-x="638" 
d="M467 -248q0 -26 -10.5 -36.5t-32.5 -10.5h-336q-25 0 -35 8.5t-10 30.5v68q0 20 9.5 28t33.5 8h207v1446h-207q-24 0 -33.5 8t-9.5 29v66q0 21 9.5 30t33.5 9h340q23 0 32 -10t9 -35v-1639z" />
    <glyph glyph-name="asciicircum" unicode="^" horiz-adv-x="1099" 
d="M983 809q0 -13 -16 -23l-80 -41q-13 -8 -27 -8q-17 0 -29 21l-284 438l-287 -430q-16 -23 -31 -23q-2 0 -20 9l-74 51q-18 12 -18 26t10 29l365 520q14 19 23 26t22 7h34q27 0 45 -29l359 -553q8 -16 8 -20z" />
    <glyph glyph-name="underscore" unicode="_" horiz-adv-x="1044" 
d="M1034 -246q0 -24 -6.5 -31.5t-28.5 -7.5h-948q-25 0 -33 6.5t-8 24.5v53q0 19 7 25t28 6h948q27 0 34 -6.5t7 -28.5v-41z" />
    <glyph glyph-name="grave" unicode="`" horiz-adv-x="665" 
d="M539 1221q0 -11 -9 -23l-24 -37q-10 -14 -25 -14q-8 0 -16 4l-318 158q-20 9 -20 26q0 14 8 25l39 61q15 21 29 21q12 0 30 -12l287 -185q19 -13 19 -24z" />
    <glyph glyph-name="a" unicode="a" horiz-adv-x="1101" 
d="M1042 27q0 -27 -30 -27h-86q-64 0 -98.5 43.5t-34.5 108.5h-5q-36 -69 -125.5 -120.5t-181.5 -51.5q-103 0 -182.5 41t-127.5 111.5t-72.5 158t-24.5 186.5q0 125 35.5 227.5t95.5 169t138.5 102.5t166.5 36q80 0 155 -33t119 -92l2 67q0 35 39 35h93q36 0 36 -39v-717
q0 -75 11 -92q10 -18 34 -18h15q15 0 21.5 -5.5t6.5 -21.5v-69zM780 332v393q-36 68 -104.5 107.5t-143.5 39.5q-122 0 -199 -102t-77 -281q0 -167 70 -265.5t182 -98.5q93 0 167.5 62t104.5 145z" />
    <glyph glyph-name="b" unicode="b" horiz-adv-x="1101" 
d="M1022 498q0 -107 -28 -199.5t-81.5 -164.5t-141 -113t-198.5 -41q-76 0 -152.5 36t-121.5 90l-4 -73q-1 -19 -10 -26t-31 -7h-78q-21 0 -30 9t-9 30v1360q0 22 6 31t25 12l100 14h11q32 0 32 -35v-526q52 50 129.5 83.5t165.5 33.5q153 0 260 -92q77 -69 116.5 -179.5
t39.5 -242.5zM840 489q0 173 -65.5 276t-203.5 103q-68 0 -139.5 -35t-120.5 -88v-489q43 -61 108 -98t136 -37q74 0 130.5 29.5t89.5 81t49 116.5t16 141z" />
    <glyph glyph-name="c" unicode="c" horiz-adv-x="886" 
d="M856 66q0 -16 -25 -27q-127 -59 -276 -59q-157 0 -266 65.5t-160 179.5t-51 269q0 230 131.5 374t357.5 144q145 0 262 -60q21 -9 21 -26q0 -5 -4 -17l-17 -65q-7 -25 -22 -25q-10 0 -19 6q-113 52 -213 52q-146 0 -231.5 -101.5t-85.5 -273.5q0 -81 18 -149.5t54 -123
t96.5 -85.5t140.5 -31q118 0 230 49q12 4 16 4q15 0 21 -21l18 -57q4 -16 4 -22z" />
    <glyph glyph-name="d" unicode="d" horiz-adv-x="1103" 
d="M969 43q0 -20 -8.5 -31.5t-22.5 -11.5h-88q-43 0 -43 39l-2 74q-50 -59 -132 -96t-169 -37q-107 0 -190 41.5t-132.5 113t-74.5 161.5t-25 193q0 229 123 377t323 148q73 0 148.5 -31.5t118.5 -83.5v500q0 21 6.5 30.5t25.5 12.5l101 14h10q31 0 31 -35v-1378zM795 254
v477q-33 60 -101 101.5t-141 41.5q-136 0 -213.5 -102.5t-77.5 -273.5q0 -168 72.5 -273.5t202.5 -105.5q71 0 145 39.5t113 95.5z" />
    <glyph glyph-name="e" unicode="e" horiz-adv-x="1021" 
d="M954 526q0 -36 -11 -46.5t-50 -10.5h-629q5 -153 89.5 -249.5t234.5 -96.5q138 0 246 43q16 4 20 4q20 0 25 -18l22 -76q2 -4 2 -10q0 -15 -24 -27q-62 -29 -149.5 -44t-164.5 -15q-232 0 -357.5 139.5t-125.5 376.5q0 224 130 370t347 146q169 0 279 -113
q116 -119 116 -338v-35zM782 588v28q0 111 -60 186t-171 75q-121 0 -195.5 -83.5t-87.5 -205.5h514z" />
    <glyph glyph-name="f" unicode="f" horiz-adv-x="718" 
d="M731 1411q0 -12 -2 -20l-14 -64q-6 -20 -21 -20q-6 0 -18 4q-72 26 -135 26q-100 0 -139.5 -62.5t-39.5 -189.5v-96h252q16 0 23.5 -5t7.5 -19v-70q0 -29 -29 -29h-254v-821q0 -45 -38 -45h-97q-39 0 -39 43v823h-120q-17 0 -22 5.5t-5 25.5v64q0 28 29 28h118v39
q0 81 9 164q19 136 101 210.5t222 74.5q98 0 187 -35q24 -10 24 -31z" />
    <glyph glyph-name="g" unicode="g" horiz-adv-x="1105" 
d="M971 53q0 -246 -110.5 -375t-350.5 -129q-141 0 -291 70q-24 12 -24 33q0 6 4 18l22 62q9 28 29 28q8 0 20 -6q137 -61 236 -61q163 0 227 82.5t64 251.5v94q-48 -54 -131 -87.5t-162 -33.5q-106 0 -188 39t-132.5 107.5t-76 156.5t-25.5 191q0 104 29.5 196.5t84 165
t141 114.5t193.5 42q76 0 152 -32.5t119 -88.5l2 63q0 35 41 35h90q20 0 28.5 -9.5t8.5 -31.5v-686v-209zM797 270v461q-34 61 -103 101t-143 40q-75 0 -132.5 -31t-90 -84t-48.5 -116.5t-16 -136.5q0 -69 14 -130.5t44 -115.5t84 -85.5t126 -31.5q74 0 150.5 37t114.5 92z
" />
    <glyph glyph-name="h" unicode="h" horiz-adv-x="1105" 
d="M969 39q0 -21 -7.5 -30t-25.5 -9h-107q-34 0 -34 39v577q0 120 -43 185t-156 65q-69 0 -149.5 -34t-135.5 -84v-709q0 -39 -35 -39h-106q-33 0 -33 37v1362q0 37 39 43l86 12q3 0 9.5 1t9.5 1q30 0 30 -35v-530q65 58 156 89.5t180 31.5q322 0 322 -367v-606z" />
    <glyph glyph-name="i" unicode="i" horiz-adv-x="485" 
d="M348 1231q0 -43 -32 -70.5t-74 -27.5q-43 0 -74 27.5t-31 70.5t31 70.5t74 27.5t74.5 -27.5t31.5 -70.5zM330 43q0 -43 -39 -43h-94q-41 0 -41 43v905q0 41 41 41h94q39 0 39 -41v-905z" />
    <glyph glyph-name="j" unicode="j" horiz-adv-x="536" 
d="M401 1231q0 -43 -31.5 -72t-72.5 -29q-42 0 -73 28t-31 71t31 71.5t73 28.5q43 0 73.5 -27.5t30.5 -70.5zM381 51q0 -287 -109 -401q-48 -50 -111.5 -74.5t-160.5 -24.5q-45 0 -115 13q-22 3 -22 28v11l12 73q3 21 25 21h6q62 -10 100 -10q95 0 144 61q57 70 57 277v925
q0 39 39 39h98q37 0 37 -39v-899z" />
    <glyph glyph-name="k" unicode="k" horiz-adv-x="907" 
d="M874 20q0 -20 -34 -20h-113q-43 0 -65 35l-306 459l-45 -45v-404q0 -45 -41 -45h-96q-37 0 -37 41v1360q0 20 7 29t26 12l94 14q2 0 6 1t6 1q35 0 35 -39v-825h4l318 373q19 22 43 22h133q18 0 18 -14q0 -9 -8 -17l-323 -368l366 -539q12 -15 12 -31z" />
    <glyph glyph-name="l" unicode="l" horiz-adv-x="448" 
d="M311 43q0 -43 -37 -43h-100q-37 0 -37 41v1360q0 22 6 30t25 11l102 14h11q30 0 30 -35v-1378z" />
    <glyph glyph-name="m" unicode="m" horiz-adv-x="1697" 
d="M1561 43q0 -43 -39 -43h-95q-41 0 -41 43v575q0 123 -43 186.5t-159 63.5q-61 0 -130.5 -26.5t-125.5 -69.5q16 -52 16 -225v-504q0 -43 -39 -43h-94q-41 0 -41 43v575q0 58 -7.5 99.5t-27.5 77.5t-59 54.5t-98 18.5q-68 0 -138 -33t-129 -87v-705q0 -43 -39 -43h-96
q-39 0 -39 43v905q0 41 39 41h88q41 0 41 -37l2 -63q64 58 146 90.5t165 32.5q88 0 158 -32t109 -95q69 62 159.5 94.5t182.5 32.5q190 0 272 -127q62 -98 62 -273v-569z" />
    <glyph glyph-name="n" unicode="n" horiz-adv-x="1103" 
d="M969 43q0 -43 -39 -43h-96q-39 0 -39 43v573q0 58 -8.5 100.5t-30 78t-62 53.5t-100.5 18q-69 0 -148.5 -33.5t-134.5 -84.5v-705q0 -43 -39 -43h-96q-39 0 -39 41v907q0 22 9 31.5t30 9.5h90q39 0 39 -37l2 -63q70 59 158 91t178 32q326 0 326 -367v-602z" />
    <glyph glyph-name="o" unicode="o" horiz-adv-x="1093" 
d="M1014 496q0 -146 -53.5 -261.5t-162.5 -185t-257 -69.5q-116 0 -205 39.5t-144 110t-82.5 163.5t-27.5 205q0 146 53 261t161.5 184t256.5 69q154 0 259.5 -68t153.5 -182t48 -266zM834 494q0 75 -15 140.5t-46.5 121.5t-88 88.5t-133.5 32.5q-64 0 -114.5 -22t-83 -58
t-53.5 -85.5t-29.5 -101t-8.5 -108.5q0 -59 8 -112.5t28.5 -104.5t51.5 -88t80.5 -59.5t112.5 -22.5q77 0 135.5 32t91 87t48.5 120t16 140z" />
    <glyph glyph-name="p" unicode="p" horiz-adv-x="1103" 
d="M1024 504q0 -104 -28 -197t-82 -166.5t-140 -117t-194 -43.5q-79 0 -153 29.5t-118 84.5v-495q0 -39 -45 -39h-90q-39 0 -39 43v1349q0 21 9 29t30 8h78q24 0 35.5 -8t11.5 -29v-71q50 59 133.5 95t171.5 36q105 0 187.5 -42t132 -113.5t75 -161t25.5 -191.5zM842 500
q0 72 -13.5 134t-43 118t-85 88t-131.5 32q-72 0 -147 -37.5t-113 -93.5v-481q33 -61 103.5 -102t144.5 -41q76 0 133 33.5t89 90.5t47.5 122t15.5 137z" />
    <glyph glyph-name="q" unicode="q" horiz-adv-x="1103" 
d="M967 -397q0 -23 -7 -33t-26 -10h-103q-21 0 -29.5 8t-8.5 29v509q-53 -59 -131.5 -92.5t-163.5 -33.5q-87 0 -157 27.5t-118 75t-80 113.5t-46.5 140t-14.5 158q0 105 28 197.5t82 164.5t140 114t194 42q78 0 154 -31t121 -88l2 63q0 33 41 33h84q39 0 39 -41v-1345z
M793 260v465q-36 62 -106 104.5t-142 42.5q-77 0 -133.5 -31.5t-88 -86.5t-46.5 -118.5t-15 -137.5q0 -55 7.5 -105.5t26.5 -100.5t48.5 -86.5t76.5 -59.5t107 -23q73 0 147.5 40t117.5 97z" />
    <glyph glyph-name="r" unicode="r" horiz-adv-x="643" 
d="M618 971l-14 -92q-3 -21 -22 -21h-7q-27 6 -59 6q-54 0 -109.5 -33t-95.5 -90v-698q0 -43 -39 -43h-96q-39 0 -39 43v905q0 41 39 41h88q41 0 41 -37l2 -69q93 129 236 129q29 0 59 -6q16 -3 16 -25v-10z" />
    <glyph glyph-name="s" unicode="s" horiz-adv-x="800" 
d="M741 285q0 -139 -104.5 -222t-269.5 -83q-138 0 -281 65q-20 9 -20 27q0 8 2 12l26 74q7 20 23 20q8 0 12 -2q140 -61 244 -61q90 0 144 41t54 112q0 57 -38.5 93.5t-114.5 66.5l-137 53q-211 82 -211 258q0 87 49 150t126 93t169 30q142 0 266 -58q18 -9 18 -20
q0 -4 -4 -16l-22 -72q-6 -21 -23 -21q-4 0 -16 4q-42 20 -104.5 35t-110.5 15q-79 0 -123.5 -36t-44.5 -91q0 -50 29.5 -80.5t97.5 -59.5l160 -67q204 -85 204 -260z" />
    <glyph glyph-name="t" unicode="t" horiz-adv-x="714" 
d="M686 49q0 -22 -29 -33q-85 -36 -190 -36q-69 0 -129 19t-94 56q-41 46 -52.5 106t-11.5 169v536h-112q-20 0 -25.5 5.5t-5.5 25.5v64q0 28 26 28h117v234q0 21 7 29.5t28 11.5l100 14h9q30 0 30 -37v-252h242q15 0 22 -5t7 -21v-70q0 -27 -31 -27h-240v-553q0 -59 7 -95
t28 -60q38 -41 113 -41q50 0 129 24q4 2 12 2q19 0 25 -20l16 -66q0 -2 1 -4.5t1 -3.5z" />
    <glyph glyph-name="u" unicode="u" horiz-adv-x="1087" 
d="M952 45q0 -45 -41 -45h-88q-39 0 -39 39l-2 63q-143 -122 -323 -122q-322 0 -322 370v598q0 41 41 41h92q41 0 41 -41v-571q0 -122 41.5 -185t155.5 -63q64 0 140.5 36t129.5 85v698q0 41 39 41h96q39 0 39 -41v-903z" />
    <glyph glyph-name="v" unicode="v" horiz-adv-x="929" 
d="M899 969q0 -5 -4 -17l-340 -919q-13 -33 -47 -33h-90q-38 0 -49 33l-336 919q-2 4 -2 15q0 22 30 22h113q41 0 49 -28l185 -555q48 -144 65 -203h2q20 72 62 196l184 557q6 18 17.5 25.5t33.5 7.5h94q33 0 33 -20z" />
    <glyph glyph-name="w" unicode="w" horiz-adv-x="1415" 
d="M1380 963q0 -11 -2 -15l-274 -911q-12 -37 -49 -37h-105q-40 0 -49 37l-196 684h-3l-192 -686q-10 -35 -51 -35h-103q-39 0 -49 37l-272 911q-2 6 -2 17q0 24 30 24h109q43 0 49 -28l195 -748h4l213 745q8 31 41 31h84q30 0 37 -24l217 -754h4l192 743q9 35 49 35h99
q24 0 24 -26z" />
    <glyph glyph-name="x" unicode="x" horiz-adv-x="952" 
d="M918 18q0 -18 -23 -18h-147q-34 0 -52 27l-229 362h-2l-238 -362q-18 -27 -53 -27h-121q-18 0 -18 16q0 12 8 23l340 471l-297 442q-6 9 -6 17q0 20 24 20h142q30 0 43 -22l200 -314h3l208 310q16 26 45 26h127q19 0 19 -14q0 -8 -6 -17l-312 -426l336 -491q9 -12 9 -23z
" />
    <glyph glyph-name="y" unicode="y" horiz-adv-x="993" 
d="M969 969q0 -7 -4 -19l-400 -1071q-68 -183 -158 -255.5t-255 -72.5q-46 0 -93 9q-22 5 -22 30v11l10 77q3 29 31 29h8q69 -6 72 -6q85 0 138 36t85 116l53 131l-366 970q-2 4 -2 15q0 20 22 20h135q30 0 39 -26l266 -766l258 761q6 17 15 24t28 7h113q27 0 27 -20z" />
    <glyph glyph-name="z" unicode="z" horiz-adv-x="823" 
d="M778 31q0 -31 -26 -31h-668q-18 0 -27.5 11t-9.5 26v39q0 29 21 59l483 729v2h-430q-20 0 -27.5 7t-7.5 28v57q0 31 31 31h606q37 0 37 -33v-41q0 -26 -19 -53l-489 -735v-2h496q30 0 30 -29v-65z" />
    <glyph glyph-name="braceleft" unicode="{" horiz-adv-x="688" 
d="M649 1432q0 -9 -2 -13l-14 -59q-5 -27 -29 -27h-98q-40 0 -69.5 -20t-44 -51.5t-20.5 -59t-7 -53.5l-7 -272q-3 -135 -43 -209.5t-106 -79.5v-2q141 -10 149 -305l7 -261q1 -26 7 -53t20.5 -58.5t44 -51t69.5 -19.5h90q30 0 35 -22l14 -60q0 -1 1 -4t1 -4q0 -24 -39 -24
h-119q-127 0 -205 76t-81 214l-6 301q-2 103 -25 155.5t-82 59.5q-25 3 -31 9t-6 22v45q0 19 6.5 26.5t26.5 8.5q60 6 84.5 58t26.5 143l6 315q3 137 83.5 214t202.5 77h132q28 0 28 -16z" />
    <glyph glyph-name="bar" unicode="|" horiz-adv-x="421" 
d="M293 0q0 -22 -9 -31.5t-30 -9.5h-82q-43 0 -43 41v1415q0 41 33 41h92q21 0 30 -8t9 -29v-1419z" />
    <glyph glyph-name="braceright" unicode="}" horiz-adv-x="688" 
d="M635 565q0 -20 -5.5 -27t-25.5 -8q-60 -6 -84 -57.5t-26 -142.5l-7 -316q-3 -136 -83.5 -213t-202.5 -77h-133q-27 0 -27 16q0 2 1 5t1 5l12 62q5 26 29 26h100q40 0 69.5 19.5t43.5 51t20 58.5t7 53l6 275q3 135 44 209.5t107 79.5v2q-143 10 -151 305l-6 258
q-1 26 -7 53.5t-20 59t-43.5 51.5t-69.5 20h-92q-27 0 -33 23l-16 61q0 2 -1 5.5t-1 4.5q0 21 39 21h121q127 0 205 -76.5t81 -214.5l7 -301q2 -103 25 -155.5t81 -59.5q22 -3 28.5 -10t6.5 -19v-47z" />
    <glyph glyph-name="asciitilde" unicode="~" horiz-adv-x="1099" 
d="M975 612q0 -14 -17 -28q-8 -6 -44.5 -34t-50.5 -37t-44 -25.5t-57 -22.5t-57 -6q-67 0 -148 45q-100 53 -158 53q-47 0 -170 -65q-23 -13 -32 -13q-13 0 -21 15l-41 67q-8 13 -8 23q0 13 29 32q2 1 28.5 18t32.5 20.5t29.5 17t34.5 17.5t31 11.5t37 10t34 2.5
q71 0 166 -45q7 -3 35.5 -16.5t43.5 -20t38.5 -13t40.5 -6.5q16 0 40 9t40.5 18t45.5 26.5t35 20.5q18 10 31 10q14 0 27 -16l39 -45q10 -13 10 -23z" />
    <glyph glyph-name="nbspace" unicode="&#xa0;" horiz-adv-x="475" 
 />
    <glyph glyph-name="exclamdown" unicode="&#xa1;" horiz-adv-x="526" 
d="M410 899q0 -53 -35 -83t-84 -30q-47 0 -82 30t-35 81t36 83t81 32q46 0 82.5 -31t36.5 -82zM379 -389q0 -21 -8.5 -29t-26.5 -8h-113q-21 0 -27.5 8.5t-6.5 28.5v4l20 1042q0 17 8 24t27 7h72q21 0 28.5 -6.5t7.5 -24.5l19 -1044v-2z" />
    <glyph glyph-name="cent" unicode="&#xa2;" 
d="M936 68q0 -18 -25 -29q-103 -50 -241 -57v-140q0 -25 -7 -33t-34 -8h-29q-25 0 -32 9t-7 34v140q-199 23 -303 158t-104 352q0 206 108.5 345.5t298.5 166.5v163q0 20 7.5 27.5t25.5 7.5h41q23 0 29 -7t6 -30v-155q59 -1 125 -18t114 -42q25 -14 25 -28q0 -3 -4 -19
l-21 -61q-8 -25 -22 -25q-10 0 -19 6q-98 46 -198 49v-759q103 3 204 47q12 4 19 4q12 0 20 -21l19 -57q4 -16 4 -20zM561 123v743q-106 -28 -166.5 -122.5t-60.5 -241.5q0 -145 56.5 -248t170.5 -131z" />
    <glyph glyph-name="sterling" unicode="&#xa3;" 
d="M1026 37q0 -19 -9 -28t-32 -9h-813q-23 0 -33 8.5t-10 30.5v55q0 19 7.5 30t29.5 21q143 70 143 281v72h-104q-23 0 -29 6.5t-6 30.5v40q0 23 7.5 30t29.5 7h102v97h-106q-22 0 -27.5 6t-5.5 28v45q0 23 7 29t30 6h102v164q0 206 101 327.5t301 121.5q144 0 258 -50
q26 -13 26 -30q0 -1 -1 -4t-1 -4l-22 -82q-7 -23 -27 -23h-4q-125 41 -207 41q-124 0 -181.5 -76t-57.5 -207v-178h321q20 0 27.5 -6.5t7.5 -25.5v-52q0 -21 -7 -25.5t-30 -4.5h-321v-97h325q20 0 26.5 -7t6.5 -27v-48q0 -22 -7 -27t-30 -5h-321v-95q0 -170 -109 -247v-6
h600q23 0 33 -8t10 -27v-78z" />
    <glyph glyph-name="yen" unicode="&#xa5;" 
d="M1083 1389q0 -5 -8 -25l-370 -711h182q20 0 26.5 -6.5t6.5 -25.5v-52q0 -21 -7 -26.5t-30 -5.5h-213v-95h219q20 0 26.5 -7t6.5 -27v-48q0 -22 -7 -28t-30 -6h-215v-289q0 -21 -6.5 -29t-24.5 -8h-123q-19 0 -26 8.5t-7 30.5v287h-207q-22 0 -28 7.5t-6 31.5v41
q0 23 7.5 29.5t29.5 6.5h204v95h-209q-21 0 -26.5 6.5t-5.5 29.5v45q0 23 7 29t30 6h165l-383 717q-6 12 -6 19q0 22 33 22h119q51 0 67 -35l316 -626h2l305 622q12 25 23 32t38 7h95q30 0 30 -22z" />
    <glyph glyph-name="brokenbar" unicode="&#xa6;" horiz-adv-x="421" 
d="M293 940q0 -43 -39 -43h-84q-41 0 -41 43v469q0 22 8.5 31.5t28.5 9.5h88q23 0 31 -7t8 -30v-473zM293 6q0 -41 -39 -41h-84q-41 0 -41 41v471q0 22 8.5 31.5t28.5 9.5h88q23 0 31 -7t8 -30v-475z" />
    <glyph glyph-name="section" unicode="&#xa7;" horiz-adv-x="952" 
d="M831 705q0 -143 -106 -226q96 -83 96 -194q0 -138 -103.5 -221.5t-268.5 -83.5q-67 0 -145.5 16t-137.5 41q-21 9 -21 24q0 3 2.5 10t2.5 9l22 67q7 23 23 23q8 0 12 -2q137 -55 246 -55q88 0 144 42t56 111q0 56 -38 93t-115 69l-140 57q-210 85 -210 258q0 70 33 125
t91 90q-114 80 -114 205q0 128 102 200.5t246 72.5q136 0 260 -50q20 -7 20 -20q0 -8 -2 -12l-24 -78q-6 -21 -21 -21q-3 0 -10 3t-10 4q-114 43 -205 43q-80 0 -128 -36.5t-48 -90.5q0 -48 31.5 -83t97.5 -63l158 -67q204 -88 204 -260zM668 684q0 56 -40 94t-118 70
l-84 35q-47 -15 -73.5 -48t-26.5 -73q0 -50 31.5 -83.5t99.5 -64.5l125 -55l8 -4q78 45 78 129z" />
    <glyph glyph-name="dieresis" unicode="&#xa8;" horiz-adv-x="665" 
d="M618 1335q0 -45 -31 -71.5t-71 -26.5q-41 0 -74.5 27t-33.5 71q0 47 32.5 74t75.5 27q42 0 72 -28t30 -73zM258 1335q0 -44 -32 -71t-72 -27t-73.5 27t-33.5 71q0 47 32 74t75 27q42 0 73 -28t31 -73z" />
    <glyph glyph-name="copyright" unicode="&#xa9;" horiz-adv-x="1705" 
d="M1593 711q0 -150 -58.5 -286.5t-157 -235t-235.5 -156.5t-288 -58q-204 0 -374.5 99t-267.5 268t-97 369q0 150 57.5 285.5t156 233t235.5 155t290 57.5q152 0 289 -57.5t235.5 -155t156.5 -233t58 -285.5zM1458 709q0 166 -79.5 305t-218.5 220t-306 81t-306 -81
t-218.5 -220t-79.5 -305q0 -124 47 -236t127 -193.5t192.5 -129.5t237.5 -48t237.5 48t192.5 129.5t127 193.5t47 236zM1094 401q0 -9 -21 -20q-91 -45 -201 -45q-158 0 -239.5 104.5t-81.5 266.5q0 156 89 264t241 108q109 0 190 -47q16 -10 16 -20q0 -5 -4 -17l-14 -37
q-6 -16 -22 -16q-5 0 -13 4q-71 41 -147 41q-98 0 -158 -76q-61 -75 -61 -200q0 -122 56 -202.5t163 -80.5q79 0 155 37q6 4 17 4q7 0 12 -10l21 -45q2 -4 2 -13z" />
    <glyph glyph-name="ordfeminine" unicode="&#xaa;" horiz-adv-x="653" 
d="M561 852q0 -15 -4.5 -20t-17.5 -5h-66q-13 0 -18 2t-6.5 5.5t-2.5 13.5q-6 37 -6 39q-97 -74 -178 -74q-83 0 -133 47q-47 44 -47 125q0 120 121 174q87 41 233 41v2q0 4 1 12.5t1 12.5q0 12 -6 18q-5 49 -28.5 71.5t-81.5 22.5q-75 0 -160 -45q-15 -6 -19 -6
q-10 0 -16 17l-16 38q-2 4 -2 15q0 4 2 6.5t3.5 4t7 4.5t7.5 5q44 26 101.5 42t99.5 16q114 0 172.5 -58.5t58.5 -171.5v-354zM434 975v141q-86 0 -137 -16q-84 -26 -84 -105q0 -82 88 -82q67 0 133 62z" />
    <glyph glyph-name="guillemotleft" unicode="&#xab;" horiz-adv-x="948" 
d="M811 172q0 -13 -18 -25l-48 -28q-12 -6 -18 -6q-12 0 -29 20l-227 305q-12 15 -12 29q0 16 12 31l229 297q11 16 27 16q10 0 16 -4l56 -31q12 -6 12 -22q0 -7 -4 -15l-170 -270l168 -279q6 -9 6 -18zM455 752q0 -1 -6 -13l-170 -270l167 -279q5 -8 5 -18q0 -12 -19 -25
l-47 -28q-12 -6 -18 -6q-10 0 -27 20l-229 305q-11 14 -11 29t13 31l227 297q11 16 27 16q10 0 16 -4l55 -31q17 -8 17 -24z" />
    <glyph glyph-name="logicalnot" unicode="&#xac;" horiz-adv-x="1060" 
d="M956 451q0 -29 -9 -39.5t-34 -10.5h-69q-26 0 -35.5 9t-9.5 34v256h-652q-28 0 -36.5 8t-8.5 29v74q0 20 9.5 27.5t31.5 7.5h764q32 0 40.5 -8t8.5 -33v-354z" />
    <glyph glyph-name="registered" unicode="&#xae;" horiz-adv-x="1705" 
d="M1593 711q0 -150 -58.5 -286.5t-157 -235t-235.5 -156.5t-288 -58q-204 0 -374.5 99t-267.5 268t-97 369q0 150 57.5 285.5t156 233t235.5 155t290 57.5q152 0 289 -57.5t235.5 -155t156.5 -233t58 -285.5zM1458 709q0 166 -79.5 305t-218.5 220t-306 81t-306 -81
t-218.5 -220t-79.5 -305q0 -124 47 -236t127 -193.5t192.5 -129.5t237.5 -48t237.5 48t192.5 129.5t127 193.5t47 236zM1118 356q0 -12 -16 -12h-78q-12 0 -18 5t-13 18l-151 264h-86v-260q0 -27 -21 -27h-69q-13 0 -17 6t-4 21v669q0 15 5 21t20 6h151q266 0 266 -215
q0 -71 -39 -124t-102 -77l164 -272q8 -12 8 -23zM975 850q0 68 -41 97.5t-121 29.5h-57v-258h71q67 0 107.5 34t40.5 97z" />
    <glyph glyph-name="macron" unicode="&#xaf;" horiz-adv-x="665" 
d="M606 1337q0 -27 -12 -38t-47 -11h-430q-31 0 -42.5 11.5t-11.5 37.5v54q0 25 11 35t43 10h430q36 0 47.5 -9t11.5 -36v-54z" />
    <glyph glyph-name="degree" unicode="&#xb0;" horiz-adv-x="585" 
d="M485 1245q0 -79 -56.5 -135.5t-135.5 -56.5t-135 56t-56 136q0 79 56 135t135 56q80 0 136 -56t56 -135zM377 1245q0 35 -24.5 58.5t-59.5 23.5t-59.5 -23.5t-24.5 -58.5t24.5 -59.5t59.5 -24.5t59.5 24.5t24.5 59.5z" />
    <glyph glyph-name="plusminus" unicode="&#xb1;" horiz-adv-x="1044" 
d="M958 719q0 -26 -8 -35.5t-32 -9.5h-312v-295q0 -26 -8.5 -34.5t-30.5 -8.5h-86q-22 0 -29.5 8t-7.5 31v299h-311q-26 0 -34.5 8.5t-8.5 30.5v75q0 22 8 30.5t31 8.5h315v295q0 28 8 36.5t33 8.5h76q25 0 35 -8.5t10 -32.5v-299h307q28 0 36.5 -8t8.5 -33v-67zM883 74
q0 -25 -8.5 -35t-32.5 -10h-627q-26 0 -34.5 8.5t-8.5 30.5v84q0 22 8 30t31 8h625q28 0 37.5 -8t9.5 -32v-76z" />
    <glyph glyph-name="twosuperior" unicode="&#xb2;" horiz-adv-x="702" 
d="M621 1233q0 -75 -38 -145t-130 -170q-43 -48 -138 -134h267q22 0 29 -6.5t7 -25.5v-52q0 -32 -34 -32h-420q-19 0 -27 7.5t-8 26.5v43q0 23 18 41q8 9 102 103t138 147q94 116 94 187q0 49 -31 76.5t-81 27.5q-68 0 -146 -45q-6 -4 -18 -4h-2q-16 0 -25 18l-22 47
q-4 8 -4 13q0 13 20 26q102 62 211 62q100 0 169 -56t69 -155z" />
    <glyph glyph-name="threesuperior" unicode="&#xb3;" horiz-adv-x="702" 
d="M600 901q0 -107 -78 -173t-188 -66q-39 0 -94.5 8.5t-89.5 25.5q-29 14 -29 31q0 4 4 16l16 48q8 16 25 16q6 0 18 -4q74 -31 140 -31q63 0 102 34.5t39 92.5q0 63 -45.5 95t-116.5 32h-29q-18 0 -27 11t-9 26v37q0 33 34 33h33q131 0 131 108q0 45 -29.5 69.5
t-82.5 24.5q-57 0 -125 -35q-6 -4 -17 -4h-2q-18 0 -24 15l-21 45q-2 4 -2 14q0 14 17 25q83 51 192 51q93 0 162 -52.5t69 -144.5q0 -50 -26 -94.5t-68 -69.5q55 -25 88 -73.5t33 -110.5z" />
    <glyph glyph-name="acute" unicode="&#xb4;" horiz-adv-x="665" 
d="M539 1329q0 -17 -21 -26l-309 -154q-15 -6 -25 -6q-16 0 -28 18l-21 31q-8 11 -8 20q0 17 18 27l287 184q20 13 29 13q16 0 31 -21l38 -61q9 -12 9 -25z" />
    <glyph glyph-name="mu" unicode="&#xb5;" horiz-adv-x="1089" 
d="M954 45q0 -45 -41 -45h-90q-34 0 -37 39l-4 57q-122 -116 -278 -116q-137 0 -195 61v-346q0 -22 -9.5 -31.5t-33.5 -9.5h-86q-24 0 -33.5 9t-9.5 32v645v608q0 41 39 41h96q39 0 39 -41v-577q0 -143 51 -199q47 -53 150 -53q68 0 138.5 32.5t127.5 84.5v712q0 41 41 41
h94q41 0 41 -41v-903z" />
    <glyph glyph-name="paragraph" unicode="&#xb6;" horiz-adv-x="1067" 
d="M901 -250q0 -39 -35 -39h-65q-35 0 -35 41v1520h-176v-1518q0 -43 -39 -43h-92q-39 0 -39 43v996q-139 8 -232.5 101.5t-93.5 227.5q0 138 98 235t236 97h434q22 0 30.5 -8t8.5 -31v-1622z" />
    <glyph glyph-name="periodcentered" unicode="&#xb7;" horiz-adv-x="442" 
d="M352 590q0 -51 -37.5 -82t-83.5 -31q-47 0 -84.5 30.5t-37.5 82.5q0 53 36.5 85t85.5 32t85 -32t36 -85z" />
    <glyph glyph-name="cedilla" unicode="&#xb8;" horiz-adv-x="665" 
d="M547 -250q0 -71 -53 -116.5t-152 -45.5q-66 0 -133 25q-29 12 -29 27q0 6 2 10l11 33q6 18 18 18q8 0 20 -6q52 -19 107 -19q37 0 62.5 19t25.5 55q0 68 -107 68h-36q-29 0 -40.5 12t-11.5 35q0 21 2 31l13 104h102l-6 -98h16q81 0 135 -37t54 -115z" />
    <glyph glyph-name="onesuperior" unicode="&#xb9;" horiz-adv-x="702" 
d="M453 721q0 -20 -7 -28.5t-28 -8.5h-62q-21 0 -27.5 8t-6.5 29v573l-125 -73q-15 -9 -23 -9q-14 0 -22 15l-27 45q-6 9 -6 16q0 17 20 29l191 117q19 12 49 12h41q19 0 26 -8.5t7 -26.5v-690z" />
    <glyph glyph-name="ordmasculine" unicode="&#xba;" horiz-adv-x="716" 
d="M641 1120q0 -134 -76.5 -222.5t-210.5 -88.5q-138 0 -207 87t-69 226q0 135 75.5 224.5t208.5 89.5q138 0 208.5 -88t70.5 -228zM520 1120q0 59 -14.5 107t-52 82t-93.5 34q-58 0 -96 -34.5t-51.5 -81t-13.5 -103.5q0 -61 13 -108.5t50 -82t94 -34.5q58 0 96 32.5
t53 80.5t15 108z" />
    <glyph glyph-name="guillemotright" unicode="&#xbb;" horiz-adv-x="948" 
d="M848 461q0 -18 -12 -33l-228 -295q-12 -18 -26 -18q-11 0 -17 4l-55 33q-14 7 -14 22q0 6 4 14l172 273l-168 276q-4 4 -4 17q0 16 16 26l45 27q11 8 23 8t28 -22l226 -306q10 -13 10 -26zM489 461q0 -21 -10 -33l-229 -295q-12 -18 -27 -18q-8 0 -14 4l-57 33
q-15 8 -15 22q0 10 4 14l172 273l-168 276q-6 9 -6 19q0 14 19 24l45 27q13 8 22 8q11 0 27 -22l227 -306q10 -13 10 -26z" />
    <glyph glyph-name="onequarter" unicode="&#xbc;" horiz-adv-x="1611" 
d="M1470 23q0 -19 -5.5 -26t-22.5 -7h-72q-18 0 -24.5 6.5t-6.5 26.5v135h-338q-21 0 -26.5 9t-5.5 28v26q0 30 12 58l205 442q16 31 43 31h57q37 0 37 -23q0 -6 -8 -22l-197 -435h221v156q0 37 31 37h68q16 0 24 -7.5t8 -27.5v-407zM1323 1452q0 -14 -14 -35l-879 -1440
q-13 -21 -22 -27.5t-31 -6.5h-103q-11 0 -18.5 7t-7.5 17q0 3 8 19l883 1444q16 26 29.5 34.5t41.5 8.5h82q31 0 31 -21zM453 721q0 -20 -7 -28.5t-28 -8.5h-62q-21 0 -27.5 8t-6.5 29v573l-123 -73q-15 -9 -23 -9q-11 0 -22 15l-29 45q-6 9 -6 16q0 17 20 29l191 117
q19 12 49 12h41q19 0 26 -8.5t7 -26.5v-690z" />
    <glyph glyph-name="onehalf" unicode="&#xbd;" horiz-adv-x="1611" 
d="M1473 23q0 -33 -37 -33h-420q-19 0 -27 8t-8 27v41q0 23 20 43q10 11 103 103.5t137 145.5q92 114 92 187q0 49 -30 75.5t-80 26.5q-71 0 -146 -43q-12 -6 -22 -6q-16 0 -25 18q-1 1 -10.5 23t-11.5 27q-2 4 -2 12q0 14 20 27q97 59 211 59q100 0 168 -55t68 -154
q0 -76 -38 -146.5t-130 -170.5q-43 -48 -138 -134h269q22 0 29.5 -6t7.5 -24v-51zM1282 1452q0 -17 -12 -35l-879 -1440q-13 -21 -22 -27.5t-31 -6.5h-102q-11 0 -19 7t-8 17q0 7 6 19l885 1444q16 26 29.5 34.5t41.5 8.5h80q31 0 31 -21zM414 721q0 -20 -7 -28.5t-28 -8.5
h-62q-21 0 -27.5 8t-6.5 29v573l-123 -73q-15 -9 -23 -9q-11 0 -22 15l-29 45q-6 9 -6 16q0 17 20 29l191 117q19 12 49 12h41q19 0 26 -8.5t7 -26.5v-690z" />
    <glyph glyph-name="threequarters" unicode="&#xbe;" horiz-adv-x="1611" 
d="M1489 23q0 -19 -7 -26t-24 -7h-69q-18 0 -24.5 6.5t-6.5 26.5v135h-338q-21 0 -28 9.5t-7 27.5v26q0 30 12 58l207 442q16 31 43 31h58q34 0 34 -23q0 -10 -6 -22l-196 -435h221v156q0 37 31 37h67q17 0 25 -7.5t8 -27.5v-407zM1341 1452q0 -14 -14 -35l-878 -1440
q-13 -21 -22.5 -27.5t-31.5 -6.5h-102q-11 0 -19 7t-8 17q0 3 8 19l883 1444q15 26 29.5 34.5t42.5 8.5h82q30 0 30 -21zM594 901q0 -107 -78 -173t-188 -66q-39 0 -95 8.5t-90 25.5q-28 14 -28 31q0 4 4 16l16 48q8 16 25 16q6 0 18 -4q74 -31 139 -31q63 0 101.5 34.5
t38.5 92.5q0 63 -45 95t-115 32h-31q-17 0 -26 11t-9 26v37q0 33 35 33h33q129 0 129 108q0 45 -29 69.5t-82 24.5q-56 0 -124 -35q-6 -4 -19 -4h-2q-16 0 -22 15l-21 45q-2 4 -2 14q0 14 16 25q83 51 193 51q93 0 161 -52.5t68 -144.5q0 -50 -26 -94.5t-68 -69.5
q56 -26 89.5 -74.5t33.5 -109.5z" />
    <glyph glyph-name="questiondown" unicode="&#xbf;" horiz-adv-x="862" 
d="M657 899q0 -53 -34.5 -83t-83.5 -30q-48 0 -83.5 30t-35.5 81t37 83t82 32q46 0 82 -31t36 -82zM776 -354q0 -17 -14 -25q-138 -72 -291 -72q-150 0 -255 89.5t-105 236.5q0 75 33.5 150.5t91.5 138.5l149 162q43 46 65 86t29 104q2 18 2 62v10q0 37 25 37h84
q23 0 28 -23q5 -27 9 -80v-24q0 -36 -6 -74q-17 -87 -80 -150l-150 -155q-110 -115 -110 -219q0 -58 19.5 -101t53.5 -66t72 -33.5t82 -10.5q97 0 201 51q6 4 16 4q17 0 23 -18l24 -64q4 -12 4 -16z" />
    <glyph glyph-name="Agrave" unicode="&#xc0;" horiz-adv-x="1245" 
d="M1227 23q0 -23 -31 -23h-127q-26 0 -37 7t-18 30l-135 381h-531l-141 -383q-8 -21 -17 -28t-30 -7h-121q-23 0 -23 20q0 5 4 21l515 1341q11 29 36 29h109q28 0 37 -25l506 -1343q4 -16 4 -20zM829 559l-163 469q-38 108 -48 146h-2q-13 -44 -51 -150l-168 -465h432z
M772 1627q0 -11 -9 -23l-24 -37q-10 -14 -25 -14q-8 0 -16 4l-318 158q-20 9 -20 26q0 14 8 25l39 61q15 21 29 21q12 0 30 -12l287 -185q19 -13 19 -24z" />
    <glyph glyph-name="Aacute" unicode="&#xc1;" horiz-adv-x="1245" 
d="M1227 23q0 -23 -31 -23h-127q-26 0 -37 7t-18 30l-135 381h-531l-141 -383q-8 -21 -17 -28t-30 -7h-121q-23 0 -23 20q0 5 4 21l515 1341q11 29 36 29h109q28 0 37 -25l506 -1343q4 -16 4 -20zM829 559l-163 469q-38 108 -48 146h-2q-13 -44 -51 -150l-168 -465h432z
M820 1720q0 -17 -21 -26l-309 -154q-15 -6 -25 -6q-16 0 -28 18l-21 31q-8 11 -8 20q0 17 18 27l287 184q20 13 29 13q16 0 31 -21l38 -61q9 -12 9 -25z" />
    <glyph glyph-name="Acircumflex" unicode="&#xc2;" horiz-adv-x="1245" 
d="M1227 23q0 -23 -31 -23h-127q-26 0 -37 7t-18 30l-135 381h-531l-141 -383q-8 -21 -17 -28t-30 -7h-121q-23 0 -23 20q0 5 4 21l515 1341q11 29 36 29h109q28 0 37 -25l506 -1343q4 -16 4 -20zM829 559l-163 469q-38 108 -48 146h-2q-13 -44 -51 -150l-168 -465h432z
M922 1595q0 -14 -11 -25l-30 -32q-13 -13 -23 -13q-9 0 -24 11l-205 161l-189 -147q-20 -17 -34 -17q-12 0 -27 15l-29 31q-10 13 -10 20q0 11 12 23l222 200q20 17 41 17h28q21 0 39 -15l227 -204q13 -13 13 -25z" />
    <glyph glyph-name="Atilde" unicode="&#xc3;" horiz-adv-x="1245" 
d="M1227 23q0 -23 -31 -23h-127q-26 0 -37 7t-18 30l-135 381h-531l-141 -383q-8 -21 -17 -28t-30 -7h-121q-23 0 -23 20q0 5 4 21l515 1341q11 29 36 29h109q28 0 37 -25l506 -1343q4 -16 4 -20zM829 559l-163 469q-38 108 -48 146h-2q-13 -44 -51 -150l-168 -465h432z
M961 1679q0 -14 -17 -28q-118 -91 -213 -91q-41 0 -108.5 36t-102.5 36q-37 0 -133 -49q-21 -12 -33 -12q-15 0 -24 20l-27 70q-8 20 -8 22q0 14 29 33q103 68 186 68q44 0 121 -37t102 -37q28 0 127 55q17 10 31 10q17 0 29 -18l30 -53q11 -18 11 -25z" />
    <glyph glyph-name="Adieresis" unicode="&#xc4;" horiz-adv-x="1245" 
d="M1227 23q0 -23 -31 -23h-127q-26 0 -37 7t-18 30l-135 381h-531l-141 -383q-8 -21 -17 -28t-30 -7h-121q-23 0 -23 20q0 5 4 21l515 1341q11 29 36 29h109q28 0 37 -25l506 -1343q4 -16 4 -20zM829 559l-163 469q-38 108 -48 146h-2q-13 -44 -51 -150l-168 -465h432z
M897 1665q0 -45 -31 -71.5t-71 -26.5q-41 0 -74.5 27t-33.5 71q0 47 32.5 74t75.5 27q42 0 72 -28t30 -73zM537 1665q0 -44 -32 -71t-72 -27t-73.5 27t-33.5 71q0 47 32 74t75 27q42 0 73 -28t31 -73z" />
    <glyph glyph-name="Aring" unicode="&#xc5;" horiz-adv-x="1245" 
d="M1227 23q0 -23 -31 -23h-127q-26 0 -37 7t-18 30l-135 381h-531l-141 -383q-8 -21 -17 -28t-30 -7h-121q-23 0 -23 20q0 5 4 21l515 1341q11 29 36 29h109q28 0 37 -25l506 -1343q4 -16 4 -20zM829 559l-163 469q-38 108 -48 146h-2q-13 -44 -51 -150l-168 -465h432z
M785 1704q0 -68 -48 -116t-116 -48t-117 48.5t-49 115.5t49 115.5t117 48.5t116 -48t48 -116zM682 1704q0 26 -17.5 43.5t-43.5 17.5q-27 0 -45.5 -17.5t-18.5 -43.5t19 -44t45 -18t43.5 18t17.5 44z" />
    <glyph glyph-name="AE" unicode="&#xc6;" horiz-adv-x="1802" 
d="M1712 37q0 -19 -9 -28t-32 -9h-659h-17q-17 0 -27.5 1t-23.5 5t-19.5 13t-6.5 24v377h-459l-248 -385q-1 -2 -4 -7t-4 -6.5t-3.5 -5.5t-4 -5t-4.5 -3.5t-5 -3.5t-5.5 -2t-7.5 -1.5t-9 -0.5h-123q-21 0 -21 18q0 12 7 23l858 1335q21 35 61 35h729q35 0 35 -29v-6l-10 -82
q-3 -20 -14.5 -26t-40.5 -6h-541v-449h483q43 0 43 -37v-74q0 -21 -9 -28.5t-32 -7.5h-485v-516h567q23 0 32 -8t9 -27v-78zM918 561v598l-379 -598h379z" />
    <glyph glyph-name="Ccedilla" unicode="&#xc7;" horiz-adv-x="1202" 
d="M1155 102q0 -21 -29 -34q-186 -88 -395 -88h-24l-5 -78h17q81 0 134.5 -37t53.5 -115q0 -71 -53 -116.5t-152 -45.5q-66 0 -133 25q-28 11 -28 27q0 6 2 10l10 33q6 18 18 18q9 0 21 -6q52 -19 106 -19q37 0 62.5 19t25.5 55q0 68 -106 68h-37q-29 0 -40 11.5t-11 35.5
q0 21 2 31l10 94q-125 21 -222 85t-157.5 160t-91.5 215t-31 255q0 148 43.5 279.5t123.5 232.5t203.5 160t272.5 59q208 0 375 -93q25 -16 25 -28q0 -10 -6 -25l-33 -76q-9 -20 -25 -20q-9 0 -18 6q-143 82 -305 82q-97 0 -182 -41t-144 -115q-127 -157 -127 -411
q0 -94 17 -179t53 -159.5t88 -128.5t128 -85.5t167 -31.5q75 0 161 20.5t158 55.5q9 6 19 6q17 0 26 -25l27 -63q6 -12 6 -23z" />
    <glyph glyph-name="Egrave" unicode="&#xc8;" horiz-adv-x="1044" 
d="M954 37q0 -19 -9 -28t-32 -9h-714q-26 0 -34.5 8.5t-8.5 34.5v1327q0 22 9 31.5t30 9.5h720q18 0 25.5 -7t7.5 -22v-10l-8 -78q-1 -20 -13.5 -26t-41.5 -6h-539v-449h481q41 0 41 -37v-74q0 -21 -8.5 -28.5t-30.5 -7.5h-483v-516h565q23 0 33 -8t10 -27v-78zM729 1624
q0 -11 -9 -23l-24 -37q-10 -14 -25 -14q-8 0 -16 4l-318 158q-20 9 -20 26q0 14 8 25l39 61q15 21 29 21q12 0 30 -12l287 -185q19 -13 19 -24z" />
    <glyph glyph-name="Eacute" unicode="&#xc9;" horiz-adv-x="1044" 
d="M954 37q0 -19 -9 -28t-32 -9h-714q-26 0 -34.5 8.5t-8.5 34.5v1327q0 22 9 31.5t30 9.5h720q18 0 25.5 -7t7.5 -22v-10l-8 -78q-1 -20 -13.5 -26t-41.5 -6h-539v-449h481q41 0 41 -37v-74q0 -21 -8.5 -28.5t-30.5 -7.5h-483v-516h565q23 0 33 -8t10 -27v-78zM754 1745
q0 -17 -21 -26l-309 -154q-15 -6 -25 -6q-16 0 -28 18l-21 31q-8 11 -8 20q0 17 18 27l287 184q20 13 29 13q16 0 31 -21l38 -61q9 -12 9 -25z" />
    <glyph glyph-name="Ecircumflex" unicode="&#xca;" horiz-adv-x="1044" 
d="M954 37q0 -19 -9 -28t-32 -9h-714q-26 0 -34.5 8.5t-8.5 34.5v1327q0 22 9 31.5t30 9.5h720q18 0 25.5 -7t7.5 -22v-10l-8 -78q-1 -20 -13.5 -26t-41.5 -6h-539v-449h481q41 0 41 -37v-74q0 -21 -8.5 -28.5t-30.5 -7.5h-483v-516h565q23 0 33 -8t10 -27v-78zM838 1608
q0 -14 -11 -25l-30 -32q-13 -13 -23 -13q-9 0 -24 11l-205 161l-189 -147q-20 -17 -34 -17q-12 0 -27 15l-29 31q-10 13 -10 20q0 11 12 23l222 200q20 17 41 17h28q21 0 39 -15l227 -204q13 -13 13 -25z" />
    <glyph glyph-name="Edieresis" unicode="&#xcb;" horiz-adv-x="1044" 
d="M954 37q0 -19 -9 -28t-32 -9h-714q-26 0 -34.5 8.5t-8.5 34.5v1327q0 22 9 31.5t30 9.5h720q18 0 25.5 -7t7.5 -22v-10l-8 -78q-1 -20 -13.5 -26t-41.5 -6h-539v-449h481q41 0 41 -37v-74q0 -21 -8.5 -28.5t-30.5 -7.5h-483v-516h565q23 0 33 -8t10 -27v-78zM819 1659
q0 -45 -31 -71.5t-71 -26.5q-41 0 -74.5 27t-33.5 71q0 47 32.5 74t75.5 27q42 0 72 -28t30 -73zM459 1659q0 -44 -32 -71t-72 -27t-73.5 27t-33.5 71q0 47 32 74t75 27q42 0 73 -28t31 -73z" />
    <glyph glyph-name="Igrave" unicode="&#xcc;" horiz-adv-x="759" 
d="M629 1317q0 -21 -7 -27t-28 -6h-125v-1155h123q35 0 35 -31v-65q0 -18 -6 -25.5t-23 -7.5h-436q-31 0 -31 31v69q0 16 6.5 22.5t24.5 6.5h123v1155h-131q-18 0 -24.5 6t-6.5 23v67q0 31 29 31h442q35 0 35 -29v-65zM557 1618q0 -11 -9 -23l-24 -37q-10 -14 -25 -14
q-8 0 -16 4l-318 158q-20 9 -20 26q0 14 8 25l39 61q15 21 29 21q12 0 30 -12l287 -185q19 -13 19 -24z" />
    <glyph glyph-name="Iacute" unicode="&#xcd;" horiz-adv-x="759" 
d="M629 1317q0 -21 -7 -27t-28 -6h-125v-1155h123q35 0 35 -31v-65q0 -18 -6 -25.5t-23 -7.5h-436q-31 0 -31 31v69q0 16 6.5 22.5t24.5 6.5h123v1155h-131q-18 0 -24.5 6t-6.5 23v67q0 31 29 31h442q35 0 35 -29v-65zM605 1728q0 -17 -21 -26l-309 -154q-15 -6 -25 -6
q-16 0 -28 18l-21 31q-8 11 -8 20q0 17 18 27l287 184q20 13 29 13q16 0 31 -21l38 -61q9 -12 9 -25z" />
    <glyph glyph-name="Icircumflex" unicode="&#xce;" horiz-adv-x="759" 
d="M629 1317q0 -21 -7 -27t-28 -6h-125v-1155h123q35 0 35 -31v-65q0 -18 -6 -25.5t-23 -7.5h-436q-31 0 -31 31v69q0 16 6.5 22.5t24.5 6.5h123v1155h-131q-18 0 -24.5 6t-6.5 23v67q0 31 29 31h442q35 0 35 -29v-65zM662 1606q0 -14 -11 -25l-30 -32q-13 -13 -23 -13
q-9 0 -24 11l-205 161l-189 -147q-20 -17 -34 -17q-12 0 -27 15l-29 31q-10 13 -10 20q0 11 12 23l222 200q20 17 41 17h28q21 0 39 -15l227 -204q13 -13 13 -25z" />
    <glyph glyph-name="Idieresis" unicode="&#xcf;" horiz-adv-x="759" 
d="M629 1317q0 -21 -7 -27t-28 -6h-125v-1155h123q35 0 35 -31v-65q0 -18 -6 -25.5t-23 -7.5h-436q-31 0 -31 31v69q0 16 6.5 22.5t24.5 6.5h123v1155h-131q-18 0 -24.5 6t-6.5 23v67q0 31 29 31h442q35 0 35 -29v-65zM647 1665q0 -45 -31 -71.5t-71 -26.5q-41 0 -74.5 27
t-33.5 71q0 47 32.5 74t75.5 27q42 0 72 -28t30 -73zM287 1665q0 -44 -32 -71t-72 -27t-73.5 27t-33.5 71q0 47 32 74t75 27q42 0 73 -28t31 -73z" />
    <glyph glyph-name="Eth" unicode="&#xd0;" horiz-adv-x="1370" 
d="M1276 698q0 -174 -54.5 -314.5t-156.5 -233.5q-166 -150 -504 -150h-356q-29 0 -40 10.5t-11 38.5v569h-138q-27 0 -36 9t-9 30v76q0 22 9 29.5t32 7.5h142v584q0 31 13 44t46 13h258q200 0 314.5 -21.5t209.5 -80.5q133 -83 207 -240.5t74 -370.5zM1073 700
q0 150 -44.5 270.5t-129.5 188.5q-121 98 -360 98h-195v-487h66h186q28 0 36.5 -8t8.5 -33v-65q0 -26 -8.5 -36t-32.5 -10h-184h-72v-466h176q149 0 243 23.5t161 90.5q149 152 149 434z" />
    <glyph glyph-name="Ntilde" unicode="&#xd1;" horiz-adv-x="1423" 
d="M1268 43q0 -25 -8 -34t-27 -9h-94q-35 0 -62 39l-739 1036h-4v-1032q0 -43 -41 -43h-94q-22 0 -31.5 10t-9.5 33v1325q0 43 41 43h82q19 0 30 -6.5t23 -24.5l753 -1058h5v1046q0 24 8.5 33.5t29.5 9.5h99q23 0 31 -9.5t8 -33.5v-1325zM1039 1673q0 -14 -17 -28
q-118 -91 -213 -91q-41 0 -108.5 36t-102.5 36q-37 0 -133 -49q-21 -12 -33 -12q-15 0 -24 20l-27 70q-8 20 -8 22q0 14 29 33q103 68 186 68q44 0 121 -37t102 -37q28 0 127 55q17 10 31 10q17 0 29 -18l30 -53q11 -18 11 -25z" />
    <glyph glyph-name="Ograve" unicode="&#xd2;" horiz-adv-x="1384" 
d="M1294 715q0 -171 -46 -310.5t-127 -232t-191 -142.5t-238 -50q-274 0 -427.5 192t-153.5 528q0 332 166 534t434 202q185 0 317.5 -92t199 -253.5t66.5 -375.5zM1092 709q0 272 -99.5 420.5t-285.5 148.5q-177 0 -286.5 -158.5t-109.5 -412.5q0 -269 102.5 -420.5
t286.5 -151.5q175 0 283.5 156t108.5 418zM897 1618q0 -11 -9 -23l-24 -37q-10 -14 -25 -14q-8 0 -16 4l-318 158q-20 9 -20 26q0 14 8 25l39 61q15 21 29 21q12 0 30 -12l287 -185q19 -13 19 -24z" />
    <glyph glyph-name="Oacute" unicode="&#xd3;" horiz-adv-x="1384" 
d="M1294 715q0 -171 -46 -310.5t-127 -232t-191 -142.5t-238 -50q-274 0 -427.5 192t-153.5 528q0 332 166 534t434 202q185 0 317.5 -92t199 -253.5t66.5 -375.5zM1092 709q0 272 -99.5 420.5t-285.5 148.5q-177 0 -286.5 -158.5t-109.5 -412.5q0 -269 102.5 -420.5
t286.5 -151.5q175 0 283.5 156t108.5 418zM920 1732q0 -17 -21 -26l-309 -154q-15 -6 -25 -6q-16 0 -28 18l-21 31q-8 11 -8 20q0 17 18 27l287 184q20 13 29 13q16 0 31 -21l38 -61q9 -12 9 -25z" />
    <glyph glyph-name="Ocircumflex" unicode="&#xd4;" horiz-adv-x="1384" 
d="M1294 715q0 -171 -46 -310.5t-127 -232t-191 -142.5t-238 -50q-274 0 -427.5 192t-153.5 528q0 332 166 534t434 202q185 0 317.5 -92t199 -253.5t66.5 -375.5zM1092 709q0 272 -99.5 420.5t-285.5 148.5q-177 0 -286.5 -158.5t-109.5 -412.5q0 -269 102.5 -420.5
t286.5 -151.5q175 0 283.5 156t108.5 418zM989 1618q0 -14 -11 -25l-30 -32q-13 -13 -23 -13q-9 0 -24 11l-205 161l-189 -147q-20 -17 -34 -17q-12 0 -27 15l-29 31q-10 13 -10 20q0 11 12 23l222 200q20 17 41 17h28q21 0 39 -15l227 -204q13 -13 13 -25z" />
    <glyph glyph-name="Otilde" unicode="&#xd5;" horiz-adv-x="1384" 
d="M1294 715q0 -171 -46 -310.5t-127 -232t-191 -142.5t-238 -50q-274 0 -427.5 192t-153.5 528q0 332 166 534t434 202q185 0 317.5 -92t199 -253.5t66.5 -375.5zM1092 709q0 272 -99.5 420.5t-285.5 148.5q-177 0 -286.5 -158.5t-109.5 -412.5q0 -269 102.5 -420.5
t286.5 -151.5q175 0 283.5 156t108.5 418zM1043 1675q0 -14 -17 -28q-118 -91 -213 -91q-41 0 -108.5 36t-102.5 36q-37 0 -133 -49q-21 -12 -33 -12q-15 0 -24 20l-27 70q-8 20 -8 22q0 14 29 33q103 68 186 68q44 0 121 -37t102 -37q28 0 127 55q17 10 31 10q17 0 29 -18
l30 -53q11 -18 11 -25z" />
    <glyph glyph-name="Odieresis" unicode="&#xd6;" horiz-adv-x="1384" 
d="M1294 715q0 -171 -46 -310.5t-127 -232t-191 -142.5t-238 -50q-274 0 -427.5 192t-153.5 528q0 332 166 534t434 202q185 0 317.5 -92t199 -253.5t66.5 -375.5zM1092 709q0 272 -99.5 420.5t-285.5 148.5q-177 0 -286.5 -158.5t-109.5 -412.5q0 -269 102.5 -420.5
t286.5 -151.5q175 0 283.5 156t108.5 418zM978 1665q0 -45 -31 -71.5t-71 -26.5q-41 0 -74.5 27t-33.5 71q0 47 32.5 74t75.5 27q42 0 72 -28t30 -73zM618 1665q0 -44 -32 -71t-72 -27t-73.5 27t-33.5 71q0 47 32 74t75 27q42 0 73 -28t31 -73z" />
    <glyph glyph-name="multiply" unicode="&#xd7;" horiz-adv-x="1044" 
d="M877 287q0 -8 -15 -27l-59 -61q-15 -15 -29 -15q-9 0 -26 17l-226 225l-221 -219q-19 -19 -31 -19q-13 0 -28 15l-54 53q-14 14 -14 27q0 12 16 28l224 224l-224 223q-20 20 -20 33q0 10 16 26l54 55q19 19 32 19q12 0 29 -17l227 -225l217 217q21 21 31 21q12 0 31 -19
l47 -47q12 -12 12 -28q0 -23 -8 -31l-223 -223l223 -222q19 -19 19 -30z" />
    <glyph glyph-name="Oslash" unicode="&#xd8;" horiz-adv-x="1392" 
d="M1292 715q0 -171 -45.5 -310.5t-126 -232t-190.5 -142.5t-238 -50q-190 0 -323 92l-82 -125q-22 -35 -37 -35q-5 0 -25 12l-43 27q-24 15 -24 29q0 9 8 20l106 162q-163 189 -163 538q0 331 167 532.5t435 201.5q192 0 327 -101l92 137q10 14 14 19.5t9 9.5t10 4
q11 0 17 -4l51 -35q24 -16 24 -28q0 -10 -6 -19l-114 -176q157 -192 157 -526zM942 1188q-96 96 -237 96q-176 0 -285 -161t-109 -416q0 -232 80 -371zM1092 709q0 220 -72 364l-553 -856q94 -88 231 -88q175 0 284.5 159t109.5 421z" />
    <glyph glyph-name="Ugrave" unicode="&#xd9;" horiz-adv-x="1427" 
d="M1278 616q0 -145 -31 -258.5t-96.5 -199.5t-175 -132t-258.5 -46q-131 0 -229 30t-161.5 83t-102 135.5t-54.5 179t-16 221.5v741q0 41 39 41h112q39 0 39 -41v-723q0 -66 3 -115t12 -105t25.5 -95.5t44.5 -78t67 -62t95.5 -38t127.5 -14.5q80 0 141 18.5t100.5 55.5
t65.5 81t39 106t17.5 118.5t4.5 130.5v721q0 41 41 41h111q39 0 39 -41v-754zM848 1614q0 -11 -9 -23l-24 -37q-10 -14 -25 -14q-8 0 -16 4l-318 158q-20 9 -20 26q0 14 8 25l39 61q15 21 29 21q12 0 30 -12l287 -185q19 -13 19 -24z" />
    <glyph glyph-name="Uacute" unicode="&#xda;" horiz-adv-x="1427" 
d="M1278 616q0 -145 -31 -258.5t-96.5 -199.5t-175 -132t-258.5 -46q-131 0 -229 30t-161.5 83t-102 135.5t-54.5 179t-16 221.5v741q0 41 39 41h112q39 0 39 -41v-723q0 -66 3 -115t12 -105t25.5 -95.5t44.5 -78t67 -62t95.5 -38t127.5 -14.5q80 0 141 18.5t100.5 55.5
t65.5 81t39 106t17.5 118.5t4.5 130.5v721q0 41 41 41h111q39 0 39 -41v-754zM942 1702q0 -17 -21 -26l-309 -154q-15 -6 -25 -6q-16 0 -28 18l-21 31q-8 11 -8 20q0 17 18 27l287 184q20 13 29 13q16 0 31 -21l38 -61q9 -12 9 -25z" />
    <glyph glyph-name="Ucircumflex" unicode="&#xdb;" horiz-adv-x="1427" 
d="M1278 616q0 -145 -31 -258.5t-96.5 -199.5t-175 -132t-258.5 -46q-131 0 -229 30t-161.5 83t-102 135.5t-54.5 179t-16 221.5v741q0 41 39 41h112q39 0 39 -41v-723q0 -66 3 -115t12 -105t25.5 -95.5t44.5 -78t67 -62t95.5 -38t127.5 -14.5q80 0 141 18.5t100.5 55.5
t65.5 81t39 106t17.5 118.5t4.5 130.5v721q0 41 41 41h111q39 0 39 -41v-754zM989 1612q0 -14 -11 -25l-30 -32q-13 -13 -23 -13q-9 0 -24 11l-205 161l-189 -147q-20 -17 -34 -17q-12 0 -27 15l-29 31q-10 13 -10 20q0 11 12 23l222 200q20 17 41 17h28q21 0 39 -15
l227 -204q13 -13 13 -25z" />
    <glyph glyph-name="Udieresis" unicode="&#xdc;" horiz-adv-x="1427" 
d="M1278 616q0 -145 -31 -258.5t-96.5 -199.5t-175 -132t-258.5 -46q-131 0 -229 30t-161.5 83t-102 135.5t-54.5 179t-16 221.5v741q0 41 39 41h112q39 0 39 -41v-723q0 -66 3 -115t12 -105t25.5 -95.5t44.5 -78t67 -62t95.5 -38t127.5 -14.5q80 0 141 18.5t100.5 55.5
t65.5 81t39 106t17.5 118.5t4.5 130.5v721q0 41 41 41h111q39 0 39 -41v-754zM983 1665q0 -45 -31 -71.5t-71 -26.5q-41 0 -74.5 27t-33.5 71q0 47 32.5 74t75.5 27q42 0 72 -28t30 -73zM623 1665q0 -44 -32 -71t-72 -27t-73.5 27t-33.5 71q0 47 32 74t75 27q42 0 73 -28
t31 -73z" />
    <glyph glyph-name="Yacute" unicode="&#xdd;" 
d="M1092 1391q0 -12 -9 -27l-413 -807v-520q0 -20 -8 -28.5t-27 -8.5h-121q-19 0 -27 8.5t-8 30.5v514l-438 817q-6 12 -6 21q0 20 31 20h114q52 0 68 -35l336 -663h2l323 657q12 25 24.5 33t39.5 8h86q33 0 33 -20zM830 1714q0 -17 -21 -26l-309 -154q-15 -6 -25 -6
q-16 0 -28 18l-21 31q-8 11 -8 20q0 17 18 27l287 184q20 13 29 13q16 0 31 -21l38 -61q9 -12 9 -25z" />
    <glyph glyph-name="Thorn" unicode="&#xde;" horiz-adv-x="1089" 
d="M1008 635q0 -208 -115.5 -338.5t-321.5 -130.5q-83 0 -155.5 27t-118.5 79v-231q0 -41 -45 -41h-90q-39 0 -39 43v717v493q0 24 6.5 32t30.5 11l88 13h12q33 0 33 -39v-295q50 54 131.5 87.5t167.5 33.5q190 0 303 -116.5t113 -344.5zM827 631q0 163 -71.5 244t-196.5 81
q-77 0 -150 -35.5t-112 -89.5v-393q34 -57 106 -96t146 -39q138 0 208 83.5t70 244.5z" />
    <glyph glyph-name="germandbls" unicode="&#xdf;" horiz-adv-x="1157" 
d="M1077 420q0 -110 -39.5 -196t-107 -137t-150 -77t-176.5 -26h-12q-66 0 -82 2q-31 3 -39 10.5t-8 30.5v53q0 25 8 33t31 8q16 0 45 -1t45 -1q78 0 138 24.5t95.5 67t53.5 96.5t18 117q0 72 -28.5 128t-75.5 89t-103 49.5t-117 16.5h-67q-30 0 -36.5 4t-6.5 22v74
q0 19 6.5 25t26.5 6h30q107 0 190 71t83 191q0 121 -64.5 181t-185.5 60q-106 0 -170 -73t-64 -211v-269v-938q0 -43 -39 -43h-96q-39 0 -39 43v1002q0 170 6 240q15 189 123 287t289 98q86 0 160 -21t133 -63t93 -112.5t34 -162.5q0 -108 -65.5 -202t-172.5 -121v-2
q145 -18 240.5 -120.5t95.5 -252.5z" />
    <glyph glyph-name="agrave" unicode="&#xe0;" horiz-adv-x="1101" 
d="M1042 27q0 -27 -30 -27h-86q-64 0 -98.5 43.5t-34.5 108.5h-5q-36 -69 -125.5 -120.5t-181.5 -51.5q-103 0 -182.5 41t-127.5 111.5t-72.5 158t-24.5 186.5q0 125 35.5 227.5t95.5 169t138.5 102.5t166.5 36q80 0 155 -33t119 -92l2 67q0 35 39 35h93q36 0 36 -39v-717
q0 -75 11 -92q10 -18 34 -18h15q15 0 21.5 -5.5t6.5 -21.5v-69zM780 332v393q-36 68 -104.5 107.5t-143.5 39.5q-122 0 -199 -102t-77 -281q0 -167 70 -265.5t182 -98.5q93 0 167.5 62t104.5 145zM729 1221q0 -11 -9 -23l-24 -37q-10 -14 -25 -14q-8 0 -16 4l-318 158
q-20 9 -20 26q0 14 8 25l39 61q15 21 29 21q12 0 30 -12l287 -185q19 -13 19 -24z" />
    <glyph glyph-name="aacute" unicode="&#xe1;" horiz-adv-x="1101" 
d="M1042 27q0 -27 -30 -27h-86q-64 0 -98.5 43.5t-34.5 108.5h-5q-36 -69 -125.5 -120.5t-181.5 -51.5q-103 0 -182.5 41t-127.5 111.5t-72.5 158t-24.5 186.5q0 125 35.5 227.5t95.5 169t138.5 102.5t166.5 36q80 0 155 -33t119 -92l2 67q0 35 39 35h93q36 0 36 -39v-717
q0 -75 11 -92q10 -18 34 -18h15q15 0 21.5 -5.5t6.5 -21.5v-69zM780 332v393q-36 68 -104.5 107.5t-143.5 39.5q-122 0 -199 -102t-77 -281q0 -167 70 -265.5t182 -98.5q93 0 167.5 62t104.5 145zM783 1329q0 -17 -21 -26l-309 -154q-15 -6 -25 -6q-16 0 -28 18l-21 31
q-8 11 -8 20q0 17 18 27l287 184q20 13 29 13q16 0 31 -21l38 -61q9 -12 9 -25z" />
    <glyph glyph-name="acircumflex" unicode="&#xe2;" horiz-adv-x="1101" 
d="M1042 27q0 -27 -30 -27h-86q-64 0 -98.5 43.5t-34.5 108.5h-5q-36 -69 -125.5 -120.5t-181.5 -51.5q-103 0 -182.5 41t-127.5 111.5t-72.5 158t-24.5 186.5q0 125 35.5 227.5t95.5 169t138.5 102.5t166.5 36q80 0 155 -33t119 -92l2 67q0 35 39 35h93q36 0 36 -39v-717
q0 -75 11 -92q10 -18 34 -18h15q15 0 21.5 -5.5t6.5 -21.5v-69zM780 332v393q-36 68 -104.5 107.5t-143.5 39.5q-122 0 -199 -102t-77 -281q0 -167 70 -265.5t182 -98.5q93 0 167.5 62t104.5 145zM828 1192q0 -14 -11 -25l-30 -32q-13 -13 -23 -13q-9 0 -24 11l-205 161
l-189 -147q-20 -17 -34 -17q-12 0 -27 15l-29 31q-10 13 -10 20q0 11 12 23l222 200q20 17 41 17h28q21 0 39 -15l227 -204q13 -13 13 -25z" />
    <glyph glyph-name="atilde" unicode="&#xe3;" horiz-adv-x="1101" 
d="M1042 27q0 -27 -30 -27h-86q-64 0 -98.5 43.5t-34.5 108.5h-5q-36 -69 -125.5 -120.5t-181.5 -51.5q-103 0 -182.5 41t-127.5 111.5t-72.5 158t-24.5 186.5q0 125 35.5 227.5t95.5 169t138.5 102.5t166.5 36q80 0 155 -33t119 -92l2 67q0 35 39 35h93q36 0 36 -39v-717
q0 -75 11 -92q10 -18 34 -18h15q15 0 21.5 -5.5t6.5 -21.5v-69zM780 332v393q-36 68 -104.5 107.5t-143.5 39.5q-122 0 -199 -102t-77 -281q0 -167 70 -265.5t182 -98.5q93 0 167.5 62t104.5 145zM895 1331q0 -14 -17 -28q-118 -91 -213 -91q-41 0 -108.5 36t-102.5 36
q-37 0 -133 -49q-21 -12 -33 -12q-15 0 -24 20l-27 70q-8 20 -8 22q0 14 29 33q103 68 186 68q44 0 121 -37t102 -37q28 0 127 55q17 10 31 10q17 0 29 -18l30 -53q11 -18 11 -25z" />
    <glyph glyph-name="adieresis" unicode="&#xe4;" horiz-adv-x="1101" 
d="M1042 27q0 -27 -30 -27h-86q-64 0 -98.5 43.5t-34.5 108.5h-5q-36 -69 -125.5 -120.5t-181.5 -51.5q-103 0 -182.5 41t-127.5 111.5t-72.5 158t-24.5 186.5q0 125 35.5 227.5t95.5 169t138.5 102.5t166.5 36q80 0 155 -33t119 -92l2 67q0 35 39 35h93q36 0 36 -39v-717
q0 -75 11 -92q10 -18 34 -18h15q15 0 21.5 -5.5t6.5 -21.5v-69zM780 332v393q-36 68 -104.5 107.5t-143.5 39.5q-122 0 -199 -102t-77 -281q0 -167 70 -265.5t182 -98.5q93 0 167.5 62t104.5 145zM845 1335q0 -45 -31 -71.5t-71 -26.5q-41 0 -74.5 27t-33.5 71q0 47 32.5 74
t75.5 27q42 0 72 -28t30 -73zM485 1335q0 -44 -32 -71t-72 -27t-73.5 27t-33.5 71q0 47 32 74t75 27q42 0 73 -28t31 -73z" />
    <glyph glyph-name="aring" unicode="&#xe5;" horiz-adv-x="1101" 
d="M1042 27q0 -27 -30 -27h-86q-64 0 -98.5 43.5t-34.5 108.5h-5q-36 -69 -125.5 -120.5t-181.5 -51.5q-103 0 -182.5 41t-127.5 111.5t-72.5 158t-24.5 186.5q0 125 35.5 227.5t95.5 169t138.5 102.5t166.5 36q80 0 155 -33t119 -92l2 67q0 35 39 35h93q36 0 36 -39v-717
q0 -75 11 -92q10 -18 34 -18h15q15 0 21.5 -5.5t6.5 -21.5v-69zM780 332v393q-36 68 -104.5 107.5t-143.5 39.5q-122 0 -199 -102t-77 -281q0 -167 70 -265.5t182 -98.5q93 0 167.5 62t104.5 145zM701 1272q0 -68 -48 -116t-116 -48t-117 48.5t-49 115.5t49 115.5t117 48.5
t116 -48t48 -116zM598 1272q0 26 -17.5 43.5t-43.5 17.5q-27 0 -45.5 -17.5t-18.5 -43.5t19 -44t45 -18t43.5 18t17.5 44z" />
    <glyph glyph-name="ae" unicode="&#xe6;" horiz-adv-x="1572" 
d="M1495 524q0 -33 -8.5 -43t-36.5 -10h-180h-455q4 -95 44 -169t106 -116q77 -49 202 -49h35q127 7 199 37q4 2 12 2q17 0 23 -20l14 -66q4 -16 4 -22q0 -15 -24 -27q-63 -29 -150.5 -45t-163.5 -16q-239 0 -358 153q-63 -69 -160.5 -112.5t-222.5 -43.5q-129 0 -218 77.5
t-89 213.5q0 132 112 226q145 116 422 116h55v62q0 88 -30 137q-47 74 -162 74q-134 0 -275 -76q-9 -6 -16 -6q-14 0 -20 16l-23 62q-4 12 -4 14q0 17 23 29q157 90 331 90q213 0 295 -152h4q56 71 140.5 111.5t189.5 40.5q107 0 188 -44t129 -124q33 -54 50.5 -124
t17.5 -132v-64zM1333 590v28q0 112 -59 186.5t-172 74.5q-121 0 -195.5 -83.5t-87.5 -205.5h514zM698 233q-45 102 -45 242v19q-10 0 -47.5 -2.5t-42.5 -2.5q-315 -19 -315 -210q0 -80 50 -123t122 -43q77 0 155.5 38t122.5 82z" />
    <glyph glyph-name="ccedilla" unicode="&#xe7;" horiz-adv-x="886" 
d="M856 66q0 -16 -25 -27q-133 -62 -276 -59h-18l-5 -78h17q81 0 134.5 -37t53.5 -115q0 -71 -53 -116.5t-152 -45.5q-66 0 -133 25q-28 11 -28 27q0 6 2 10l10 33q6 18 18 18q9 0 21 -6q52 -19 106 -19q37 0 62.5 19t25.5 55q0 68 -106 68h-37q-29 0 -40 11.5t-11 35.5
q0 21 2 31l10 94q-176 34 -266 167.5t-90 336.5q0 230 131.5 374t357.5 144q145 0 262 -60q21 -9 21 -26q0 -5 -4 -17l-17 -65q-7 -25 -22 -25q-10 0 -19 6q-113 52 -213 52q-146 0 -231.5 -101.5t-85.5 -273.5q0 -81 18 -149.5t54 -123t96.5 -85.5t140.5 -31q118 0 230 49
q12 4 16 4q15 0 21 -21l18 -57q4 -16 4 -22z" />
    <glyph glyph-name="egrave" unicode="&#xe8;" horiz-adv-x="1021" 
d="M954 526q0 -36 -11 -46.5t-50 -10.5h-629q5 -153 89.5 -249.5t234.5 -96.5q138 0 246 43q16 4 20 4q20 0 25 -18l22 -76q2 -4 2 -10q0 -15 -24 -27q-62 -29 -149.5 -44t-164.5 -15q-232 0 -357.5 139.5t-125.5 376.5q0 224 130 370t347 146q169 0 279 -113
q116 -119 116 -338v-35zM782 588v28q0 111 -60 186t-171 75q-121 0 -195.5 -83.5t-87.5 -205.5h514zM699 1221q0 -11 -9 -23l-24 -37q-10 -14 -25 -14q-8 0 -16 4l-318 158q-20 9 -20 26q0 14 8 25l39 61q15 21 29 21q12 0 30 -12l287 -185q19 -13 19 -24z" />
    <glyph glyph-name="eacute" unicode="&#xe9;" horiz-adv-x="1021" 
d="M954 526q0 -36 -11 -46.5t-50 -10.5h-629q5 -153 89.5 -249.5t234.5 -96.5q138 0 246 43q16 4 20 4q20 0 25 -18l22 -76q2 -4 2 -10q0 -15 -24 -27q-62 -29 -149.5 -44t-164.5 -15q-232 0 -357.5 139.5t-125.5 376.5q0 224 130 370t347 146q169 0 279 -113
q116 -119 116 -338v-35zM782 588v28q0 111 -60 186t-171 75q-121 0 -195.5 -83.5t-87.5 -205.5h514zM715 1329q0 -17 -21 -26l-309 -154q-15 -6 -25 -6q-16 0 -28 18l-21 31q-8 11 -8 20q0 17 18 27l287 184q20 13 29 13q16 0 31 -21l38 -61q9 -12 9 -25z" />
    <glyph glyph-name="ecircumflex" unicode="&#xea;" horiz-adv-x="1021" 
d="M954 526q0 -36 -11 -46.5t-50 -10.5h-629q5 -153 89.5 -249.5t234.5 -96.5q138 0 246 43q16 4 20 4q20 0 25 -18l22 -76q2 -4 2 -10q0 -15 -24 -27q-62 -29 -149.5 -44t-164.5 -15q-232 0 -357.5 139.5t-125.5 376.5q0 224 130 370t347 146q169 0 279 -113
q116 -119 116 -338v-35zM782 588v28q0 111 -60 186t-171 75q-121 0 -195.5 -83.5t-87.5 -205.5h514zM807 1192q0 -14 -11 -25l-30 -32q-13 -13 -23 -13q-9 0 -24 11l-205 161l-189 -147q-20 -17 -34 -17q-12 0 -27 15l-29 31q-10 13 -10 20q0 11 12 23l222 200q20 17 41 17
h28q21 0 39 -15l227 -204q13 -13 13 -25z" />
    <glyph glyph-name="edieresis" unicode="&#xeb;" horiz-adv-x="1021" 
d="M954 526q0 -36 -11 -46.5t-50 -10.5h-629q5 -153 89.5 -249.5t234.5 -96.5q138 0 246 43q16 4 20 4q20 0 25 -18l22 -76q2 -4 2 -10q0 -15 -24 -27q-62 -29 -149.5 -44t-164.5 -15q-232 0 -357.5 139.5t-125.5 376.5q0 224 130 370t347 146q169 0 279 -113
q116 -119 116 -338v-35zM782 588v28q0 111 -60 186t-171 75q-121 0 -195.5 -83.5t-87.5 -205.5h514zM796 1335q0 -45 -31 -71.5t-71 -26.5q-41 0 -74.5 27t-33.5 71q0 47 32.5 74t75.5 27q42 0 72 -28t30 -73zM436 1335q0 -44 -32 -71t-72 -27t-73.5 27t-33.5 71q0 47 32 74
t75 27q42 0 73 -28t31 -73z" />
    <glyph glyph-name="igrave" unicode="&#xec;" horiz-adv-x="485" 
d="M330 43q0 -43 -39 -43h-94q-41 0 -41 43v905q0 41 41 41h94q39 0 39 -41v-905zM447 1221q0 -11 -9 -23l-24 -37q-10 -14 -25 -14q-8 0 -16 4l-318 158q-20 9 -20 26q0 14 8 25l39 61q15 21 29 21q12 0 30 -12l287 -185q19 -13 19 -24z" />
    <glyph glyph-name="iacute" unicode="&#xed;" horiz-adv-x="485" 
d="M330 43q0 -43 -39 -43h-94q-41 0 -41 43v905q0 41 41 41h94q39 0 39 -41v-905zM449 1329q0 -17 -21 -26l-309 -154q-15 -6 -25 -6q-16 0 -28 18l-21 31q-8 11 -8 20q0 17 18 27l287 184q20 13 29 13q16 0 31 -21l38 -61q9 -12 9 -25z" />
    <glyph glyph-name="icircumflex" unicode="&#xee;" horiz-adv-x="569" 
d="M360 43q0 -23 -8.5 -33t-29.5 -10h-95q-41 0 -41 43v905q0 41 41 41h95q38 0 38 -41v-905zM575 1192q0 -15 -10 -25l-30 -32q-13 -13 -23 -13t-25 11l-204 161l-189 -147q-20 -17 -35 -17q-11 0 -26 15l-29 31q-10 13 -10 20q0 11 12 23l221 200q20 17 41 17h29
q21 0 39 -15l227 -204q12 -12 12 -25z" />
    <glyph glyph-name="idieresis" unicode="&#xef;" horiz-adv-x="538" 
d="M344 43q0 -43 -39 -43h-94q-41 0 -41 43v905q0 41 41 41h94q39 0 39 -41v-905zM555 1335q0 -45 -31 -71.5t-71 -26.5q-41 0 -75 27t-34 71q0 47 33 74t76 27q42 0 72 -28t30 -73zM195 1335q0 -44 -32.5 -71t-72.5 -27t-73 27t-33 71q0 47 31.5 74t74.5 27q42 0 73.5 -28
t31.5 -73z" />
    <glyph glyph-name="eth" unicode="&#xf0;" horiz-adv-x="1091" 
d="M1014 524q0 -113 -30 -210.5t-87 -172.5t-148.5 -118t-207.5 -43t-205 39.5t-144 110t-82.5 163.5t-27.5 205q0 146 53 261t161.5 184t256.5 69q71 0 141 -21q-32 89 -102 159t-154 112l-73 -152q-8 -16 -17 -16q-7 0 -22 6l-41 20q-17 8 -17 21q0 6 6 18l74 144
q-109 33 -170 43q-26 5 -26 24v6v4l12 52q4 19 11.5 24.5t25.5 5.5q3 0 8 -1t8 -1q102 -9 199 -35l69 134q9 18 19 18q4 0 16 -6l43 -23q17 -8 17 -18q0 -5 -7 -19l-61 -122q121 -55 219.5 -156t158.5 -221.5t92 -246t32 -241.5zM834 494q0 75 -15 140.5t-46.5 121.5
t-88 88.5t-133.5 32.5q-64 0 -114.5 -22t-83 -58t-53.5 -85.5t-29.5 -101t-8.5 -108.5q0 -59 8 -112.5t28.5 -104.5t51.5 -88t80.5 -59.5t112.5 -22.5q77 0 135.5 32t91 87t48.5 120t16 140z" />
    <glyph glyph-name="ntilde" unicode="&#xf1;" horiz-adv-x="1103" 
d="M969 43q0 -43 -39 -43h-96q-39 0 -39 43v573q0 58 -8.5 100.5t-30 78t-62 53.5t-100.5 18q-69 0 -148.5 -33.5t-134.5 -84.5v-705q0 -43 -39 -43h-96q-39 0 -39 41v907q0 22 9 31.5t30 9.5h90q39 0 39 -37l2 -63q70 59 158 91t178 32q326 0 326 -367v-602zM879 1331
q0 -14 -17 -28q-118 -91 -213 -91q-41 0 -108.5 36t-102.5 36q-37 0 -133 -49q-21 -12 -33 -12q-15 0 -24 20l-27 70q-8 20 -8 22q0 14 29 33q103 68 186 68q44 0 121 -37t102 -37q28 0 127 55q17 10 31 10q17 0 29 -18l30 -53q11 -18 11 -25z" />
    <glyph glyph-name="ograve" unicode="&#xf2;" horiz-adv-x="1093" 
d="M1014 496q0 -146 -53.5 -261.5t-162.5 -185t-257 -69.5q-116 0 -205 39.5t-144 110t-82.5 163.5t-27.5 205q0 146 53 261t161.5 184t256.5 69q154 0 259.5 -68t153.5 -182t48 -266zM834 494q0 75 -15 140.5t-46.5 121.5t-88 88.5t-133.5 32.5q-64 0 -114.5 -22t-83 -58
t-53.5 -85.5t-29.5 -101t-8.5 -108.5q0 -59 8 -112.5t28.5 -104.5t51.5 -88t80.5 -59.5t112.5 -22.5q77 0 135.5 32t91 87t48.5 120t16 140zM742 1221q0 -11 -9 -23l-24 -37q-10 -14 -25 -14q-8 0 -16 4l-318 158q-20 9 -20 26q0 14 8 25l39 61q15 21 29 21q12 0 30 -12
l287 -185q19 -13 19 -24z" />
    <glyph glyph-name="oacute" unicode="&#xf3;" horiz-adv-x="1093" 
d="M1014 496q0 -146 -53.5 -261.5t-162.5 -185t-257 -69.5q-116 0 -205 39.5t-144 110t-82.5 163.5t-27.5 205q0 146 53 261t161.5 184t256.5 69q154 0 259.5 -68t153.5 -182t48 -266zM834 494q0 75 -15 140.5t-46.5 121.5t-88 88.5t-133.5 32.5q-64 0 -114.5 -22t-83 -58
t-53.5 -85.5t-29.5 -101t-8.5 -108.5q0 -59 8 -112.5t28.5 -104.5t51.5 -88t80.5 -59.5t112.5 -22.5q77 0 135.5 32t91 87t48.5 120t16 140zM736 1329q0 -17 -21 -26l-309 -154q-15 -6 -25 -6q-16 0 -28 18l-21 31q-8 11 -8 20q0 17 18 27l287 184q20 13 29 13q16 0 31 -21
l38 -61q9 -12 9 -25z" />
    <glyph glyph-name="ocircumflex" unicode="&#xf4;" horiz-adv-x="1093" 
d="M1014 496q0 -146 -53.5 -261.5t-162.5 -185t-257 -69.5q-116 0 -205 39.5t-144 110t-82.5 163.5t-27.5 205q0 146 53 261t161.5 184t256.5 69q154 0 259.5 -68t153.5 -182t48 -266zM834 494q0 75 -15 140.5t-46.5 121.5t-88 88.5t-133.5 32.5q-64 0 -114.5 -22t-83 -58
t-53.5 -85.5t-29.5 -101t-8.5 -108.5q0 -59 8 -112.5t28.5 -104.5t51.5 -88t80.5 -59.5t112.5 -22.5q77 0 135.5 32t91 87t48.5 120t16 140zM846 1192q0 -14 -11 -25l-30 -32q-13 -13 -23 -13q-9 0 -24 11l-205 161l-189 -147q-20 -17 -34 -17q-12 0 -27 15l-29 31
q-10 13 -10 20q0 11 12 23l222 200q20 17 41 17h28q21 0 39 -15l227 -204q13 -13 13 -25z" />
    <glyph glyph-name="otilde" unicode="&#xf5;" horiz-adv-x="1093" 
d="M1014 496q0 -146 -53.5 -261.5t-162.5 -185t-257 -69.5q-116 0 -205 39.5t-144 110t-82.5 163.5t-27.5 205q0 146 53 261t161.5 184t256.5 69q154 0 259.5 -68t153.5 -182t48 -266zM834 494q0 75 -15 140.5t-46.5 121.5t-88 88.5t-133.5 32.5q-64 0 -114.5 -22t-83 -58
t-53.5 -85.5t-29.5 -101t-8.5 -108.5q0 -59 8 -112.5t28.5 -104.5t51.5 -88t80.5 -59.5t112.5 -22.5q77 0 135.5 32t91 87t48.5 120t16 140zM873 1331q0 -14 -17 -28q-118 -91 -213 -91q-41 0 -108.5 36t-102.5 36q-37 0 -133 -49q-21 -12 -33 -12q-15 0 -24 20l-27 70
q-8 20 -8 22q0 14 29 33q103 68 186 68q44 0 121 -37t102 -37q28 0 127 55q17 10 31 10q17 0 29 -18l30 -53q11 -18 11 -25z" />
    <glyph glyph-name="odieresis" unicode="&#xf6;" horiz-adv-x="1093" 
d="M1014 496q0 -146 -53.5 -261.5t-162.5 -185t-257 -69.5q-116 0 -205 39.5t-144 110t-82.5 163.5t-27.5 205q0 146 53 261t161.5 184t256.5 69q154 0 259.5 -68t153.5 -182t48 -266zM834 494q0 75 -15 140.5t-46.5 121.5t-88 88.5t-133.5 32.5q-64 0 -114.5 -22t-83 -58
t-53.5 -85.5t-29.5 -101t-8.5 -108.5q0 -59 8 -112.5t28.5 -104.5t51.5 -88t80.5 -59.5t112.5 -22.5q77 0 135.5 32t91 87t48.5 120t16 140zM819 1335q0 -45 -31 -71.5t-71 -26.5q-41 0 -74.5 27t-33.5 71q0 47 32.5 74t75.5 27q42 0 72 -28t30 -73zM459 1335q0 -44 -32 -71
t-72 -27t-73.5 27t-33.5 71q0 47 32 74t75 27q42 0 73 -28t31 -73z" />
    <glyph glyph-name="divide" unicode="&#xf7;" horiz-adv-x="1044" 
d="M641 897q0 -51 -37.5 -84t-83.5 -33q-47 0 -85 32.5t-38 84.5q0 53 37 84t86 31t85 -31t36 -84zM950 506q0 -25 -8.5 -35t-32.5 -10h-245h-279h-252q-26 0 -34.5 8.5t-8.5 30.5v75q0 22 8 29.5t31 7.5h252h278h246q28 0 36.5 -8t8.5 -33v-65zM641 184q0 -51 -37.5 -82.5
t-83.5 -31.5q-47 0 -85 31t-38 83q0 53 37 85t86 32t85 -32t36 -85z" />
    <glyph glyph-name="oslash" unicode="&#xf8;" horiz-adv-x="1093" 
d="M1014 496q0 -146 -53.5 -261.5t-162.5 -185t-257 -69.5q-122 0 -209 40l-43 -67q-17 -27 -31 -27q-7 0 -16 6l-62 37q-24 14 -24 29q0 9 8 20l53 84q-135 138 -135 396q0 146 53 261t161.5 184t256.5 69q107 0 199 -37l34 57q20 33 37 33q11 0 27 -8l47 -25
q27 -15 27 -31q0 -11 -13 -30l-43 -70q146 -137 146 -405zM834 494q0 154 -58 256l-366 -603q59 -32 133 -32q77 0 135.5 32t91 87t48.5 120t16 140zM674 850q-52 27 -123 27q-64 0 -114.5 -22t-83 -58t-53.5 -85.5t-29.5 -101t-8.5 -108.5q0 -145 49 -246z" />
    <glyph glyph-name="ugrave" unicode="&#xf9;" horiz-adv-x="1087" 
d="M952 45q0 -45 -41 -45h-88q-39 0 -39 39l-2 63q-143 -122 -323 -122q-322 0 -322 370v598q0 41 41 41h92q41 0 41 -41v-571q0 -122 41.5 -185t155.5 -63q64 0 140.5 36t129.5 85v698q0 41 39 41h96q39 0 39 -41v-903zM719 1221q0 -11 -9 -23l-24 -37q-10 -14 -25 -14
q-8 0 -16 4l-318 158q-20 9 -20 26q0 14 8 25l39 61q15 21 29 21q12 0 30 -12l287 -185q19 -13 19 -24z" />
    <glyph glyph-name="uacute" unicode="&#xfa;" horiz-adv-x="1087" 
d="M952 45q0 -45 -41 -45h-88q-39 0 -39 39l-2 63q-143 -122 -323 -122q-322 0 -322 370v598q0 41 41 41h92q41 0 41 -41v-571q0 -122 41.5 -185t155.5 -63q64 0 140.5 36t129.5 85v698q0 41 39 41h96q39 0 39 -41v-903zM738 1329q0 -17 -21 -26l-309 -154q-15 -6 -25 -6
q-16 0 -28 18l-21 31q-8 11 -8 20q0 17 18 27l287 184q20 13 29 13q16 0 31 -21l38 -61q9 -12 9 -25z" />
    <glyph glyph-name="ucircumflex" unicode="&#xfb;" horiz-adv-x="1087" 
d="M952 45q0 -45 -41 -45h-88q-39 0 -39 39l-2 63q-143 -122 -323 -122q-322 0 -322 370v598q0 41 41 41h92q41 0 41 -41v-571q0 -122 41.5 -185t155.5 -63q64 0 140.5 36t129.5 85v698q0 41 39 41h96q39 0 39 -41v-903zM828 1192q0 -14 -11 -25l-30 -32q-13 -13 -23 -13
q-9 0 -24 11l-205 161l-189 -147q-20 -17 -34 -17q-12 0 -27 15l-29 31q-10 13 -10 20q0 11 12 23l222 200q20 17 41 17h28q21 0 39 -15l227 -204q13 -13 13 -25z" />
    <glyph glyph-name="udieresis" unicode="&#xfc;" horiz-adv-x="1087" 
d="M952 45q0 -45 -41 -45h-88q-39 0 -39 39l-2 63q-143 -122 -323 -122q-322 0 -322 370v598q0 41 41 41h92q41 0 41 -41v-571q0 -122 41.5 -185t155.5 -63q64 0 140.5 36t129.5 85v698q0 41 39 41h96q39 0 39 -41v-903zM827 1335q0 -45 -31 -71.5t-71 -26.5q-41 0 -74.5 27
t-33.5 71q0 47 32.5 74t75.5 27q42 0 72 -28t30 -73zM467 1335q0 -44 -32 -71t-72 -27t-73.5 27t-33.5 71q0 47 32 74t75 27q42 0 73 -28t31 -73z" />
    <glyph glyph-name="yacute" unicode="&#xfd;" horiz-adv-x="993" 
d="M969 969q0 -7 -4 -19l-400 -1071q-68 -183 -158 -255.5t-255 -72.5q-46 0 -93 9q-22 5 -22 30v11l10 77q3 29 31 29h8q69 -6 72 -6q85 0 138 36t85 116l53 131l-366 970q-2 4 -2 15q0 20 22 20h135q30 0 39 -26l266 -766l258 761q6 17 15 24t28 7h113q27 0 27 -20z
M727 1329q0 -17 -21 -26l-309 -154q-15 -6 -25 -6q-16 0 -28 18l-21 31q-8 11 -8 20q0 17 18 27l287 184q20 13 29 13q16 0 31 -21l38 -61q9 -12 9 -25z" />
    <glyph glyph-name="thorn" unicode="&#xfe;" horiz-adv-x="1089" 
d="M1012 504q0 -115 -34.5 -216.5t-98.5 -174.5q-117 -133 -312 -133q-79 0 -152.5 29.5t-117.5 84.5v-495q0 -39 -45 -39h-90q-39 0 -39 43v1157v624q0 29 8 41t29 15l88 12h10q35 0 35 -39v-526q50 56 132.5 90.5t166.5 34.5q182 0 295 -125q125 -137 125 -383zM829 500
q0 180 -71 276t-201 96q-72 0 -147 -37.5t-113 -93.5v-481q33 -61 103.5 -102t144.5 -41q121 0 194 86q90 107 90 297z" />
    <glyph glyph-name="ydieresis" unicode="&#xff;" horiz-adv-x="993" 
d="M969 969q0 -7 -4 -19l-400 -1071q-68 -183 -158 -255.5t-255 -72.5q-46 0 -93 9q-22 5 -22 30v11l10 77q3 29 31 29h8q69 -6 72 -6q85 0 138 36t85 116l53 131l-366 970q-2 4 -2 15q0 20 22 20h135q30 0 39 -26l266 -766l258 761q6 17 15 24t28 7h113q27 0 27 -20z
M778 1335q0 -45 -31 -71.5t-71 -26.5q-41 0 -74.5 27t-33.5 71q0 47 32.5 74t75.5 27q42 0 72 -28t30 -73zM418 1335q0 -44 -32 -71t-72 -27t-73.5 27t-33.5 71q0 47 32 74t75 27q42 0 73 -28t31 -73z" />
    <glyph glyph-name="Cacute" unicode="&#x106;" horiz-adv-x="1202" 
d="M1155 102q0 -21 -29 -34q-186 -88 -395 -88q-125 0 -229 37t-177.5 103t-124 157.5t-74.5 199t-24 228.5q0 148 43.5 279.5t123.5 232.5t203.5 160t272.5 59q208 0 375 -93q25 -16 25 -28q0 -10 -6 -25l-33 -76q-9 -20 -25 -20q-9 0 -18 6q-143 82 -305 82
q-97 0 -182 -41t-144 -115q-127 -157 -127 -411q0 -94 17 -179t53 -159.5t88 -128.5t128 -85.5t167 -31.5q75 0 161 20.5t158 55.5q9 6 19 6q17 0 26 -25l27 -63q6 -12 6 -23zM1063 1743q0 -18 -21 -27l-309 -153q-17 -7 -24 -7q-16 0 -29 19l-21 31q-8 11 -8 20q0 16 19 27
l286 184q18 12 29 12q17 0 31 -20l39 -62q8 -11 8 -24z" />
    <glyph glyph-name="cacute" unicode="&#x107;" horiz-adv-x="886" 
d="M856 66q0 -16 -25 -27q-127 -59 -276 -59q-157 0 -266 65.5t-160 179.5t-51 269q0 230 131.5 374t357.5 144q145 0 262 -60q21 -9 21 -26q0 -5 -4 -17l-17 -65q-7 -25 -22 -25q-10 0 -19 6q-113 52 -213 52q-146 0 -231.5 -101.5t-85.5 -273.5q0 -81 18 -149.5t54 -123
t96.5 -85.5t140.5 -31q118 0 230 49q12 4 16 4q15 0 21 -21l18 -57q4 -16 4 -22zM866 1329q0 -17 -20 -26l-309 -154q-15 -6 -25 -6q-17 0 -29 18l-20 31q-8 11 -8 20q0 17 18 27l287 184q20 13 28 13q16 0 31 -21l39 -61q8 -11 8 -25z" />
    <glyph glyph-name="Ccaron" unicode="&#x10c;" horiz-adv-x="1202" 
d="M1155 102q0 -21 -29 -34q-186 -88 -395 -88q-125 0 -229 37t-177.5 103t-124 157.5t-74.5 199t-24 228.5q0 148 43.5 279.5t123.5 232.5t203.5 160t272.5 59q208 0 375 -93q25 -16 25 -28q0 -10 -6 -25l-33 -76q-9 -20 -25 -20q-9 0 -18 6q-143 82 -305 82
q-97 0 -182 -41t-144 -115q-127 -157 -127 -411q0 -94 17 -179t53 -159.5t88 -128.5t128 -85.5t167 -31.5q75 0 161 20.5t158 55.5q9 6 19 6q17 0 26 -25l27 -63q6 -12 6 -23zM1022 1788q0 -11 -12 -23l-222 -200q-20 -17 -40 -17h-29q-21 0 -39 15l-227 204q-13 13 -13 25
q0 14 11 25l30 32q13 13 23 13q9 0 24 -11l205 -161l189 147q19 16 34 16q13 0 27 -14l29 -31q10 -13 10 -20z" />
    <glyph glyph-name="ccaron" unicode="&#x10d;" horiz-adv-x="886" 
d="M856 66q0 -16 -25 -27q-127 -59 -276 -59q-157 0 -266 65.5t-160 179.5t-51 269q0 230 131.5 374t357.5 144q145 0 262 -60q21 -9 21 -26q0 -5 -4 -17l-17 -65q-7 -25 -22 -25q-10 0 -19 6q-113 52 -213 52q-146 0 -231.5 -101.5t-85.5 -273.5q0 -81 18 -149.5t54 -123
t96.5 -85.5t140.5 -31q118 0 230 49q12 4 16 4q15 0 21 -21l18 -57q4 -16 4 -22zM834 1364q0 -10 -13 -23l-221 -200q-20 -17 -41 -17h-29q-20 0 -38 15l-228 204q-12 12 -12 25q0 15 10 25l31 32q13 13 22 13q10 0 25 -11l205 -161l188 147q20 17 35 17q12 0 27 -15l28 -31
q11 -15 11 -20z" />
    <glyph glyph-name="Dcroat" unicode="&#x110;" horiz-adv-x="1370" 
d="M1276 698q0 -174 -54.5 -314.5t-156.5 -233.5q-166 -150 -504 -150h-356q-29 0 -40 10.5t-11 38.5v565h-101q-27 0 -36 9t-9 30v76q0 22 9 29.5t32 7.5h105v588q0 31 13 44t46 13h258q200 0 314.5 -21.5t209.5 -80.5q133 -83 207 -240.5t74 -370.5zM494 659
q0 -25 -8.5 -35t-32.5 -10h-109v-462h176q149 0 243 23.5t161 90.5q149 152 149 434q0 150 -44.5 270.5t-129.5 188.5q-121 98 -360 98h-195v-491h105q28 0 36.5 -8t8.5 -33v-66z" />
    <glyph glyph-name="dcroat" unicode="&#x111;" horiz-adv-x="1103" 
d="M969 43q0 -20 -8.5 -31.5t-22.5 -11.5h-88q-43 0 -43 39l-2 74q-50 -59 -132 -96t-169 -37q-107 0 -190 41.5t-132.5 113t-74.5 161.5t-25 193q0 229 123 377t323 148q73 0 148.5 -31.5t118.5 -83.5v272h-93q-31 0 -42 12t-11 38v53q0 25 10.5 35t42.5 10h93v80
q0 21 6.5 30.5t25.5 12.5l101 14h10q31 0 31 -35v-102h61q36 0 48 -9t12 -36v-53q0 -27 -12.5 -38.5t-47.5 -11.5h-61v-1128zM795 254v477q-33 60 -101 101.5t-141 41.5q-136 0 -213.5 -102.5t-77.5 -273.5q0 -168 72.5 -273.5t202.5 -105.5q71 0 145 39.5t113 95.5z" />
    <glyph glyph-name="dotlessi" unicode="&#x131;" horiz-adv-x="485" 
d="M330 43q0 -43 -39 -43h-94q-41 0 -41 43v905q0 41 41 41h94q39 0 39 -41v-905z" />
    <glyph glyph-name="Lslash" unicode="&#x141;" horiz-adv-x="929" 
d="M899 35q0 -20 -8 -27.5t-27 -7.5h-667q-41 0 -41 45v483l-138 -112q-13 -10 -24 -10q-9 0 -15 8t-6 20v76q0 6 1 11t3.5 10l4 8t7 7.5t7.5 6t9 7t9 7.5l142 117v684q0 43 39 43h110q22 0 31.5 -10t9.5 -33v-526l164 135q15 12 27 12q18 0 18 -33v-65q0 -22 -9 -35
t-32 -31l-168 -139v-534h514q22 0 30.5 -7t8.5 -26v-84z" />
    <glyph glyph-name="lslash" unicode="&#x142;" horiz-adv-x="448" 
d="M524 891q0 -22 -9 -35t-32 -31l-172 -141v-641q0 -43 -37 -43h-100q-37 0 -37 41v498l-149 -123q-22 -16 -33.5 -10t-11.5 28v76q0 6 1 11t3.5 10l4 8t7 7.5t7.5 6t9 7t9 7.5l153 127v707q0 22 6 30t25 11l102 14h11q30 0 30 -35v-583l168 139q22 18 33.5 11.5
t11.5 -32.5v-65z" />
    <glyph glyph-name="OE" unicode="&#x152;" horiz-adv-x="1918" 
d="M1827 37q0 -20 -8.5 -28.5t-30.5 -8.5h-713q-21 0 -29.5 6.5t-9.5 24.5l-6 78q-65 -61 -160.5 -95t-195.5 -34q-273 0 -421.5 189.5t-148.5 530.5q0 334 167 535t436 201q102 0 188 -33t137 -92l4 71q3 29 35 29h717q35 0 35 -31v-6l-8 -78q-1 -20 -14 -26t-42 -6h-540
v-451h483q41 0 41 -37v-74q0 -21 -8.5 -28.5t-30.5 -7.5h-485v-516h567q23 0 32 -8t9 -27v-78zM1030 274v879q-39 52 -131 89.5t-188 37.5q-79 0 -149.5 -33.5t-121.5 -95.5q-133 -158 -133 -444q0 -267 100 -419.5t283 -152.5q94 0 187.5 37.5t152.5 101.5z" />
    <glyph glyph-name="oe" unicode="&#x153;" horiz-adv-x="1765" 
d="M1692 526q0 -36 -11.5 -46.5t-50.5 -10.5h-629q5 -153 89.5 -249.5t234.5 -96.5q138 0 246 43q16 4 20 4q20 0 25 -18l22 -76q2 -4 2 -10q0 -15 -24 -27q-62 -29 -149 -44t-164 -15q-279 0 -396 204q-116 -207 -362 -207q-116 0 -205.5 40t-144.5 111t-83 164t-28 204
q0 145 53.5 261t162.5 185.5t257 69.5q258 0 361 -205q59 97 155 151t223 54q169 0 279 -113q117 -120 117 -338v-35zM1520 588v28q0 111 -60.5 186t-171.5 75q-121 0 -195 -83.5t-87 -205.5h514zM838 492q0 58 -8.5 111.5t-30 105t-53 89t-80.5 60.5t-111 23
q-64 0 -115 -23t-83 -60t-53.5 -87.5t-30.5 -102.5t-9 -108q0 -59 8.5 -112.5t29 -105.5t52 -89.5t81 -60.5t112.5 -23q77 0 135.5 33t91 89t48.5 121.5t16 139.5z" />
    <glyph glyph-name="Scaron" unicode="&#x160;" horiz-adv-x="1040" 
d="M956 383q0 -97 -38.5 -175.5t-104.5 -127t-151 -74.5t-181 -26q-170 0 -344 57q-28 8 -28 33q0 12 2 18l26 92q8 25 29 25q14 0 24 -4q167 -60 291 -60q74 0 136.5 22t106.5 75.5t44 130.5q0 80 -47 134t-133 99l-260 139q-226 124 -226 332q0 85 37.5 155.5t99.5 115
t139 68.5t159 24q179 0 325 -62q33 -13 33 -35q0 -6 -4 -18l-31 -84q-9 -23 -29 -23q-10 0 -24 7q-138 59 -260 59q-62 0 -116 -18t-93 -62.5t-39 -109.5q0 -73 42.5 -122.5t117.5 -88.5l219 -117q65 -35 112 -69.5t86.5 -80t59.5 -103t20 -126.5zM822 1788q0 -10 -13 -23
l-221 -200q-20 -17 -41 -17h-28q-21 0 -39 15l-228 204q-12 12 -12 25q0 15 10 25l31 32q13 13 23 13q9 0 24 -11l205 -161l188 147q20 17 35 17q12 0 27 -15l28 -31q11 -15 11 -20z" />
    <glyph glyph-name="scaron" unicode="&#x161;" horiz-adv-x="800" 
d="M741 285q0 -139 -104.5 -222t-269.5 -83q-138 0 -281 65q-20 9 -20 27q0 8 2 12l26 74q7 20 23 20q8 0 12 -2q140 -61 244 -61q90 0 144 41t54 112q0 57 -38.5 93.5t-114.5 66.5l-137 53q-211 82 -211 258q0 87 49 150t126 93t169 30q142 0 266 -58q18 -9 18 -20
q0 -4 -4 -16l-22 -72q-6 -21 -23 -21q-4 0 -16 4q-42 20 -104.5 35t-110.5 15q-79 0 -123.5 -36t-44.5 -91q0 -50 29.5 -80.5t97.5 -59.5l160 -67q204 -85 204 -260zM688 1364q0 -10 -13 -23l-221 -200q-20 -17 -41 -17h-28q-21 0 -39 15l-228 204q-12 12 -12 25q0 15 10 25
l31 32q13 13 23 13q9 0 24 -11l205 -161l188 147q20 17 35 17q12 0 27 -15l28 -31q11 -15 11 -20z" />
    <glyph glyph-name="Ydieresis" unicode="&#x178;" 
d="M1092 1391q0 -12 -9 -27l-413 -807v-520q0 -20 -8 -28.5t-27 -8.5h-121q-19 0 -27 8.5t-8 30.5v514l-438 817q-6 12 -6 21q0 20 31 20h114q52 0 68 -35l336 -663h2l323 657q12 25 24.5 33t39.5 8h86q33 0 33 -20zM841 1663q0 -45 -31 -71.5t-71 -26.5q-41 0 -74.5 27
t-33.5 71q0 47 32.5 74t75.5 27q42 0 72 -28t30 -73zM481 1663q0 -44 -32 -71t-72 -27t-73.5 27t-33.5 71q0 47 32 74t75 27q42 0 73 -28t31 -73z" />
    <glyph glyph-name="Zcaron" unicode="&#x17d;" horiz-adv-x="1107" 
d="M1055 35q0 -19 -7.5 -27t-27.5 -8h-942q-29 0 -29 31v45q0 29 17 53l727 1131v2h-635q-28 0 -36.5 6t-8.5 26v86q0 18 6 24.5t26 6.5h852q21 0 30 -7.5t9 -25.5v-35q0 -40 -16 -65l-729 -1126v-2h727q20 0 28.5 -7t8.5 -26v-82zM873 1798q0 -10 -13 -23l-221 -200
q-20 -17 -41 -17h-28q-21 0 -39 15l-228 204q-12 12 -12 25q0 15 10 25l31 32q13 13 23 13q9 0 24 -11l205 -161l188 147q20 17 35 17q12 0 27 -15l28 -31q11 -15 11 -20z" />
    <glyph glyph-name="zcaron" unicode="&#x17e;" horiz-adv-x="823" 
d="M778 31q0 -31 -26 -31h-668q-18 0 -27.5 11t-9.5 26v39q0 29 21 59l483 729v2h-430q-20 0 -27.5 7t-7.5 28v57q0 31 31 31h606q37 0 37 -33v-41q0 -26 -19 -53l-489 -735v-2h496q30 0 30 -29v-65zM709 1364q0 -10 -13 -23l-221 -200q-20 -17 -41 -17h-28q-21 0 -39 15
l-228 204q-12 12 -12 25q0 15 10 25l31 32q13 13 23 13q9 0 24 -11l205 -161l188 147q20 17 35 17q12 0 27 -15l28 -31q11 -15 11 -20z" />
    <glyph glyph-name="florin" unicode="&#x192;" 
d="M1174 1380q0 -7 -5 -22l-24 -66q-5 -18 -23 -18q-4 0 -16 4q-66 27 -131 27q-117 0 -176 -103q-29 -49 -54 -178l-49 -252h246q27 0 27 -16v-11l-8 -49q-3 -18 -9 -23t-24 -5h-252l-117 -607q-18 -93 -41 -165q-45 -135 -142.5 -209t-238.5 -74q-99 0 -174 35
q-18 9 -18 26q0 7 4 19l24 67q6 19 23 19q4 0 16 -4q66 -27 129 -27q122 0 181 109q31 59 53 180l121 631h-131q-25 0 -25 14v4l10 59q3 16 9 21.5t22 5.5h137l41 221q16 85 41 162q45 136 143 211.5t238 75.5q101 0 176 -35q17 -9 17 -27z" />
    <glyph glyph-name="circumflex" unicode="&#x2c6;" horiz-adv-x="665" 
d="M629 1192q0 -14 -11 -25l-30 -32q-13 -13 -23 -13q-9 0 -24 11l-205 161l-189 -147q-20 -17 -34 -17q-12 0 -27 15l-29 31q-10 13 -10 20q0 11 12 23l222 200q20 17 41 17h28q21 0 39 -15l227 -204q13 -13 13 -25z" />
    <glyph glyph-name="caron" unicode="&#x2c7;" horiz-adv-x="665" 
d="M629 1364q0 -10 -13 -23l-221 -200q-20 -17 -41 -17h-28q-21 0 -39 15l-228 204q-12 12 -12 25q0 15 10 25l31 32q13 13 23 13q9 0 24 -11l205 -161l188 147q20 17 35 17q12 0 27 -15l28 -31q11 -15 11 -20z" />
    <glyph glyph-name="breve" unicode="&#x2d8;" horiz-adv-x="665" 
d="M600 1409q0 -14 -2 -20q-7 -49 -38.5 -89.5t-76.5 -66.5q-66 -37 -147 -37q-82 0 -148 37q-45 26 -76 66.5t-38 89.5q-2 6 -2 20q0 17 7 22t25 5h62q21 0 29.5 -6t17.5 -25q39 -80 123 -80t123 80q9 19 17.5 25t29.5 6h61q18 0 25.5 -5.5t7.5 -21.5z" />
    <glyph glyph-name="dotaccent" unicode="&#x2d9;" horiz-adv-x="665" 
d="M459 1313q0 -55 -40 -90t-89 -35q-50 0 -91.5 34t-41.5 89q0 57 40 91t93 34q52 0 90.5 -33.5t38.5 -89.5z" />
    <glyph glyph-name="ring" unicode="&#x2da;" horiz-adv-x="665" 
d="M498 1272q0 -68 -48 -116t-116 -48t-117 48.5t-49 115.5t49 115.5t117 48.5t116 -48t48 -116zM395 1272q0 26 -17.5 43.5t-43.5 17.5q-27 0 -45.5 -17.5t-18.5 -43.5t19 -44t45 -18t43.5 18t17.5 44z" />
    <glyph glyph-name="ogonek" unicode="&#x2db;" horiz-adv-x="665" 
d="M545 -354q0 -24 -25 -31q-83 -31 -166 -31q-99 0 -153 46t-54 116q0 84 60 150q44 49 145 104h121q-99 -73 -141.5 -125t-42.5 -102q0 -84 106 -84q55 0 111 18q1 0 4 1t4 1q15 0 18 -14l11 -37q2 -4 2 -12z" />
    <glyph glyph-name="tilde" unicode="&#x2dc;" horiz-adv-x="665" 
d="M670 1331q0 -14 -17 -28q-118 -91 -213 -91q-41 0 -108.5 36t-102.5 36q-37 0 -133 -49q-21 -12 -33 -12q-15 0 -24 20l-27 70q-8 20 -8 22q0 14 29 33q103 68 186 68q44 0 121 -37t102 -37q28 0 127 55q17 10 31 10q17 0 29 -18l30 -53q11 -18 11 -25z" />
    <glyph glyph-name="hungarumlaut" unicode="&#x2dd;" horiz-adv-x="665" 
d="M799 1327q0 -18 -21 -27l-311 -151q-20 -8 -23 -8q-16 0 -28 18l-21 31q-8 11 -8 20q0 16 19 27l286 186q16 11 27 11q16 0 31 -21l41 -61q8 -11 8 -25zM342 1327q0 -18 -20 -27l-310 -151q-20 -8 -24 -8q-17 0 -29 18l-20 31q-9 12 -9 20q0 16 19 27l287 186
q16 11 26 11q16 0 31 -21l41 -61q8 -11 8 -25z" />
    <glyph glyph-name="endash" unicode="&#x2013;" horiz-adv-x="1024" 
d="M1024 502q0 -25 -8.5 -35t-32.5 -10h-938q-27 0 -36 9t-9 30v84q0 22 8 29t31 7h940q28 0 36.5 -8t8.5 -33v-73z" />
    <glyph glyph-name="emdash" unicode="&#x2014;" horiz-adv-x="2048" 
d="M2048 502q0 -25 -8.5 -35t-32.5 -10h-1962q-27 0 -36 9t-9 30v84q0 22 8 29t31 7h1964q28 0 36.5 -8t8.5 -33v-73z" />
    <glyph glyph-name="quoteleft" unicode="&#x2018;" horiz-adv-x="665" 
d="M442 1391q0 -7 -12 -19q-72 -72 -72 -135q0 -27 35 -71.5t35 -75.5q0 -47 -32 -78t-79 -31q-52 0 -85 41.5t-33 95.5q0 88 48.5 174.5t121.5 137.5q18 12 28 12q11 0 23 -15l14 -18q8 -12 8 -18z" />
    <glyph glyph-name="quoteright" unicode="&#x2019;" horiz-adv-x="665" 
d="M461 1303q0 -88 -47.5 -173.5t-120.5 -136.5q-18 -12 -29 -12q-13 0 -24 14l-15 17q-8 12 -8 18q0 9 12 21q72 72 72 133q0 27 -35 72.5t-35 76.5q0 47 32 78t79 31q52 0 85.5 -42.5t33.5 -96.5z" />
    <glyph glyph-name="quotesinglbase" unicode="&#x201a;" horiz-adv-x="665" 
d="M461 37q0 -88 -47.5 -174t-120.5 -137q-19 -13 -29 -13q-12 0 -24 15l-15 16q-8 12 -8 18q0 9 12 21q72 72 72 135q0 27 -35 72t-35 76q0 47 31.5 77.5t79.5 30.5q52 0 85.5 -41.5t33.5 -95.5z" />
    <glyph glyph-name="quotedblleft" unicode="&#x201c;" horiz-adv-x="741" 
d="M668 1391q0 -8 -11 -19q-71 -71 -71 -135q0 -27 34.5 -71.5t34.5 -75.5q0 -47 -32 -78t-80 -31q-52 0 -84.5 41.5t-32.5 95.5q0 89 48 175t120 137q18 12 29 12q12 0 24 -15l15 -18q6 -9 6 -18zM307 1391q0 -9 -10 -19q-72 -72 -72 -135q0 -27 35 -71.5t35 -75.5
q0 -47 -32.5 -78t-80.5 -31q-52 0 -84 41.5t-32 95.5q0 89 47.5 175t119.5 137q18 12 29 12q13 0 25 -15l14 -18q6 -9 6 -18z" />
    <glyph glyph-name="quotedblright" unicode="&#x201d;" horiz-adv-x="741" 
d="M680 1296q0 -88 -48.5 -174t-121.5 -137q-18 -12 -29 -12t-22 14l-15 17q-8 12 -8 18q0 7 13 20q71 71 71 136q0 27 -34.5 71.5t-34.5 75.5q0 47 31.5 78t78.5 31q52 0 85.5 -42t33.5 -96zM319 1296q0 -88 -48 -174t-121 -137q-18 -12 -29 -12q-12 0 -23 14l-14 17
q-8 12 -8 18q0 8 12 20q72 72 72 136q0 27 -35 71.5t-35 75.5q0 47 32 78t79 31q52 0 85 -42t33 -96z" />
    <glyph glyph-name="quotedblbase" unicode="&#x201e;" horiz-adv-x="741" 
d="M680 37q0 -88 -48.5 -174t-121.5 -137q-20 -13 -29 -13q-10 0 -22 15l-15 16q-8 12 -8 18q0 8 13 21q71 71 71 135q0 27 -34.5 72t-34.5 76q0 47 31.5 77.5t78.5 30.5q52 0 85.5 -41.5t33.5 -95.5zM319 37q0 -88 -48 -174t-121 -137q-20 -13 -29 -13q-11 0 -23 15l-14 16
q-8 12 -8 18q0 9 12 21q72 72 72 135q0 27 -35 72t-35 76q0 47 31.5 77.5t79.5 30.5q52 0 85 -41.5t33 -95.5z" />
    <glyph glyph-name="dagger" unicode="&#x2020;" horiz-adv-x="1052" 
d="M946 801q0 -18 -7.5 -23.5t-25.5 -5.5h-2l-303 4l-8 -737q0 -39 -35 -39h-80q-19 0 -25.5 8.5t-6.5 30.5l-9 737l-299 -4h-2q-19 0 -26.5 6t-7.5 23v86q0 19 6 26t24 7v0l305 -2l-6 458v2q0 18 7 25.5t26 7.5h107q22 0 28 -7t6 -24v-2l-4 -460l305 2q19 0 26 -7.5
t7 -25.5v-86z" />
    <glyph glyph-name="daggerdbl" unicode="&#x2021;" horiz-adv-x="1052" 
d="M946 918q0 -18 -7.5 -23.5t-23.5 -5.5h-2l-305 4l-4 -250l273 2h2q19 0 25.5 -6.5t6.5 -26.5v-86q0 -17 -8.5 -22.5t-25.5 -5.5h-5l-268 4l-4 -463q0 -39 -35 -39h-80q-19 0 -25.5 8.5t-6.5 30.5l-4 463l-267 -4h-4q-17 0 -25 5.5t-8 22.5v86q0 19 7 26t24 7l270 -2
l-2 250l-297 -4h-8q-11 0 -16.5 1t-9.5 7t-4 18v86q0 20 5.5 27.5t22.5 7.5h2l305 -4l-6 344v2q0 19 7 26t24 7h109q19 0 26.5 -6.5t7.5 -24.5l-4 -348l305 4h2q18 0 24.5 -8.5t6.5 -26.5v-83z" />
    <glyph glyph-name="bullet" unicode="&#x2022;" horiz-adv-x="1044" 
d="M862 547q0 -134 -100 -229t-242 -95q-143 0 -244.5 95.5t-101.5 228.5t101.5 228t244.5 95q142 0 242 -94.5t100 -228.5z" />
    <glyph glyph-name="ellipsis" unicode="&#x2026;" horiz-adv-x="2048" 
d="M1794 90q0 -51 -36.5 -84t-82.5 -33q-47 0 -86 31.5t-39 83.5q0 53 38 84t87 31t84 -30t35 -83zM1145 90q0 -51 -37.5 -84t-83.5 -33q-47 0 -85 31.5t-38 83.5q0 53 37 84t86 31t85 -30t36 -83zM496 90q0 -51 -37.5 -84t-83.5 -33q-47 0 -85 31.5t-38 83.5q0 53 37 84
t86 31t85 -30t36 -83z" />
    <glyph glyph-name="perthousand" unicode="&#x2030;" horiz-adv-x="2048" 
d="M1956 297q0 -86 -26.5 -155.5t-87.5 -115.5t-148 -46q-131 0 -199 90t-68 225q0 86 28.5 157t91.5 117.5t151 46.5q67 0 118 -26t81 -71.5t44.5 -101t14.5 -120.5zM649 1116q0 -86 -26.5 -155.5t-87.5 -115.5t-148 -46q-67 0 -119 25.5t-83.5 69.5t-47.5 99.5t-16 120.5
q0 135 70 228.5t200 93.5q67 0 118 -26.5t81 -72t44.5 -101t14.5 -120.5zM1268 1364q0 -12 -8 -25l-967 -1349q-14 -17 -23 -17q-10 0 -34 17l-56 41q-14 8 -14 24q0 17 10 29l959 1341q14 17 26 17q7 0 33 -15l55 -34q19 -13 19 -29zM1311 297q0 -86 -26.5 -155.5
t-87.5 -115.5t-148 -46q-131 0 -199 90t-68 225q0 86 28.5 157t91.5 117.5t151 46.5q67 0 118 -26t81 -71.5t44.5 -101t14.5 -120.5zM1821 295q0 36 -5 69.5t-17.5 69.5t-39.5 58t-65 22q-39 0 -66 -21t-40 -56t-18 -68t-5 -70q0 -34 1.5 -59t9 -58t21 -53.5t39 -35.5
t60.5 -15q37 0 63 22t38.5 57.5t18 69t5.5 68.5zM514 1114q0 36 -5 69.5t-17.5 69.5t-39.5 58t-65 22q-39 0 -66 -21t-40 -56t-18 -68t-5 -70q0 -34 1.5 -59t9 -58t21 -53.5t39 -35.5t60.5 -15q37 0 63 22t38.5 57.5t18 69t5.5 68.5zM1176 295q0 36 -5 69.5t-17.5 69.5
t-39.5 58t-65 22q-39 0 -66 -21t-40 -56t-18 -68t-5 -70q0 -34 1.5 -59t9 -58t21 -53.5t39 -35.5t60.5 -15q37 0 63 22t38.5 57.5t18 69t5.5 68.5z" />
    <glyph glyph-name="guilsinglleft" unicode="&#x2039;" horiz-adv-x="589" 
d="M455 756q0 -8 -6 -17l-173 -270l170 -279q5 -8 5 -18q0 -12 -19 -25l-47 -28q-12 -6 -18 -6q-10 0 -27 20l-229 305q-11 14 -11 29t13 31l227 297q11 16 27 16q10 0 16 -4l55 -31q17 -10 17 -20z" />
    <glyph glyph-name="guilsinglright" unicode="&#x203a;" horiz-adv-x="589" 
d="M489 461q0 -18 -12 -33l-227 -295q-12 -18 -27 -18q-10 0 -16 4l-55 33q-15 11 -15 22q0 6 4 14l172 273l-168 276q-6 9 -6 17q0 13 19 26l47 27q16 8 18 8q9 0 27 -22l229 -306q10 -13 10 -26z" />
    <glyph glyph-name="fraction" unicode="&#x2044;" horiz-adv-x="327" 
d="M676 1452q0 -17 -12 -35l-879 -1440q-13 -20 -23 -27t-32 -7h-105q-11 0 -18.5 7t-7.5 17q0 7 6 19l884 1444q16 26 29 34.5t41 8.5h86q31 0 31 -21z" />
    <glyph glyph-name="Euro" unicode="&#x20ac;" 
d="M1165 1315q0 -10 -6 -25l-33 -76q-9 -20 -24 -20q-10 0 -19 6q-75 43 -140 62.5t-144 19.5q-97 0 -182 -41t-144 -115q-99 -122 -121 -303h82h334q37 0 37 -22q0 -1 -1 -4.5t-1 -5.5l-12 -52q-4 -22 -9.5 -26t-27.5 -4h-408q0 -51 6 -97h375q35 0 35 -22q0 -8 -2 -12
l-12 -48q-6 -24 -11 -28t-26 -4h-338q42 -167 149 -267t277 -100q123 0 278 76q6 4 19 4q17 0 26 -23l27 -63q6 -12 6 -23q0 -21 -29 -34q-101 -47 -177.5 -67.5t-176.5 -20.5q-253 0 -407 141t-201 377h-152q-23 0 -29 6.5t-6 30.5v40q0 23 7.5 30t29.5 7h133q-4 58 -4 90
v3v4h-102q-22 0 -27.5 6t-5.5 28v45q0 23 7 29t30 6h107q16 128 66 238.5t128.5 194.5t191.5 132t248 48q188 0 355 -93q24 -15 24 -28z" />
    <glyph glyph-name="trademark" unicode="&#x2122;" horiz-adv-x="1304" 
d="M1159 858q0 -22 -20 -22h-58q-24 0 -24 26l-6 357l-146 -369q-5 -14 -20 -14h-35q-15 0 -23 16l-159 369l-4 -365q0 -20 -23 -20h-55q-19 0 -19 20v2l15 531q0 22 20 22h51q23 0 29 -16l186 -426l176 426q5 16 23 16h53q21 0 21 -20l18 -531v-2zM561 1391l-6 -43
q-2 -19 -25 -19h-141v-471q0 -22 -22 -22h-60q-22 0 -22 22v471h-144q-20 0 -20 19v43q0 20 18 20h402q20 0 20 -14v-6z" />
    <glyph glyph-name="minus" unicode="&#x2212;" horiz-adv-x="1044" 
d="M864 506q0 -25 -8.5 -35t-32.5 -10h-184h-211h-188q-27 0 -36 9t-9 30v75q0 22 9 29.5t32 7.5h188h209h186q28 0 36.5 -8t8.5 -33v-65z" />
    <glyph glyph-name="apple" unicode="&#xf8ff;" horiz-adv-x="768" 
d="M770 664q0 -43 -18 -75.5t-48.5 -51.5t-66 -28t-74.5 -9q-82 0 -170 37q-16 8 -16 20q0 1 1 4.5t1 5.5l20 66q9 18 17 18q4 0 16 -4q84 -33 135 -33q25 0 40.5 10t15.5 27q0 27 -48 43l-92 35q-45 16 -74.5 53.5t-29.5 89.5q0 51 30.5 87.5t73 51.5t90.5 15q89 0 162 -33
q15 -6 15 -16q0 -8 -2 -12l-21 -72q-6 -12 -18 -12q-9 0 -11 2q-67 24 -114 24q-24 0 -36.5 -10.5t-12.5 -22.5q0 -23 38 -38l103 -41q42 -16 68 -49t26 -82zM408 1059q0 -3 -1 -12t-1 -13l-11 -51q0 -20 -14 -20q-8 0 -12 2q-44 14 -72 14q-38 0 -51 -21.5t-13 -58.5v-45
h103q26 0 26 -23v-59q0 -22 -24 -22h-105v-363q0 -18 -5.5 -25.5t-22.5 -7.5h-96q-29 0 -29 31v363h-51q-18 0 -23.5 6.5t-5.5 27.5v43q0 27 23 27h57v35q0 219 190 219q69 0 121 -25q17 -6 17 -22z" />
    <glyph glyph-name="fi" unicode="&#xfb01;" horiz-adv-x="1075" 
d="M930 43q0 -43 -39 -43h-94q-39 0 -39 43v823h-391v-821q0 -45 -41 -45h-97q-39 0 -39 43v823h-118q-18 0 -23.5 5.5t-5.5 25.5v64q0 28 29 28h118v39q0 183 78 299q103 150 318 150q62 0 131 -10t110 -25q23 -9 23 -29q0 -2 -1 -8.5t-1 -9.5l-10 -68q-4 -20 -19 -20
q-4 0 -20 4q-98 28 -201 28q-111 0 -168 -67q-63 -73 -63 -236v-47h376h11h137q39 0 39 -41v-905z" />
    <glyph glyph-name="fl" unicode="&#xfb02;" horiz-adv-x="1087" 
d="M946 43q0 -43 -39 -43h-98q-37 0 -37 41v1274q-90 24 -197 24t-157 -63q-32 -40 -41.5 -97t-9.5 -139v-51h235q16 0 23.5 -5t7.5 -19v-70q0 -29 -29 -29h-237v-821q0 -45 -41 -45h-97q-39 0 -39 43v823h-118q-18 0 -23.5 5.5t-5.5 25.5v64q0 28 29 28h118v39
q0 128 21 206.5t76 139.5q93 103 272 103q124 0 252 -39l94 18h10q31 0 31 -37v-1376z" />
    </font>
</defs>
</svg>
