<?xml version="1.0" standalone="no"?>
  <!DOCTYPE svg PUBLIC "-//W3C//DTD SVG 1.1//EN" "http://www.w3.org/Graphics/SVG/1.1/DTD/svg11.dtd" >
  <svg>
  <metadata>
  Created by font-carrier
  </metadata>
  <defs>
  <font id="NotoSans-Black" horiz-adv-x="2838" vert-adv-y="2838" >
    <font-face
      
      font-family="Noto Sans Black"
      
      font-weight="400"
      
      font-stretch="normal"
      
      units-per-em="1000"
      
      ascent="1069"
      
      descent="-293"
      
    />
      <missing-glyph />

      

      
      <glyph glyph-name="uni21" unicode="&#x21;" d="M226 252L65 252L40 714L251 714L226 252M42 81Q42 133 72.50 154Q103 175 145 175Q186 175 216 154Q246 133 246 81Q246 32 216 10Q186-12 145-12Q103-12 72.50 10Q42 32 42 81Z"  horiz-adv-x="290" vert-adv-y="1000"  />

      
      <glyph glyph-name="uni22" unicode="&#x22;" d="M233 714L213 456L79 456L59 714L233 714M465 714L445 456L311 456L291 714L465 714Z"  horiz-adv-x="524" vert-adv-y="1000"  />

      
      <glyph glyph-name="uni23" unicode="&#x23;" d="M509 397L494 315L613 315L613 191L471 191L435 0L304 0L340 191L258 191L223 0L93 0L128 191L18 191L18 315L152 315L167 397L51 397L51 524L191 524L226 714L357 714L321 524L402 524L437 714L568 714L532 524L644 524L644 397L509 397M282 315L363 315L378 397L297 397L282 315Z"  horiz-adv-x="662" vert-adv-y="1000"  />

      
      <glyph glyph-name="uni24" unicode="&#x24;" d="M242 22Q178 24 131 34.50Q84 45 42 63L42 216Q89 195 142.50 182.50Q196 170 242 166L242 289Q180 307 131 332Q82 357 54 397.50Q26 438 26 502Q26 593 85.50 638.50Q145 684 242 691L242 760L334 760L334 692Q395 689 445 676Q495 663 535 646L492 512Q455 528 414.50 537.50Q374 547 334 551L334 430Q404 409 453 385.50Q502 362 528 325.50Q554 289 554 230Q554 149 501 92.50Q448 36 334 24L334-58L242-58L242 22M242 550Q187 545 187 509Q187 490 199.50 478.50Q212 467 242 457L242 550M334 168Q391 177 391 214Q391 233 379 244.50Q367 256 334 266L334 168Z"  horiz-adv-x="577" vert-adv-y="1000"  />

      
      <glyph glyph-name="uni25" unicode="&#x25;" d="M200 724Q284 724 335 665.50Q386 607 386 501Q386 395 338.50 335.50Q291 276 200 276Q118 276 68 335.50Q18 395 18 501Q18 607 65 665.50Q112 724 200 724M742 714L346 0L201 0L597 714L742 714M202 605Q181 605 173 576.50Q165 548 165 499Q165 451 173 422Q181 393 202 393Q223 393 231 421.50Q239 450 239 499Q239 548 231 576.50Q223 605 202 605M743 440Q827 440 878 381.50Q929 323 929 217Q929 111 881.50 51.50Q834-8 743-8Q661-8 611 51.50Q561 111 561 217Q561 323 608 381.50Q655 440 743 440M745 321Q724 321 716 292.50Q708 264 708 215Q708 167 716 138Q724 109 745 109Q766 109 774 137.50Q782 166 782 215Q782 265 774 293Q766 321 745 321Z"  horiz-adv-x="948" vert-adv-y="1000"  />

      
      <glyph glyph-name="uni26" unicode="&#x26;" d="M330 723Q431 723 489.50 678Q548 633 548 553Q548 491 512 446Q476 401 419 366L516 274Q552 329 567 401L765 401Q749 328 717 261Q685 194 648 150L804 0L557 0L509 50Q482 33 455.50 19.50Q429 6 391.50-2Q354-10 294-10Q211-10 153 18Q95 46 65 93.50Q35 141 35 198Q35 262 69.50 311.50Q104 361 168 394Q138 429 121 467Q104 505 104 553Q104 627 161.50 675Q219 723 330 723M327 598Q307 598 291.50 586Q276 574 276 547Q276 525 289 506Q302 487 319 471Q347 487 361.50 509Q376 531 376 553Q376 577 362 587.50Q348 598 327 598M272 289Q251 273 241.50 254Q232 235 232 212Q232 181 254 161.50Q276 142 312 142Q340 142 361 149.50Q382 157 393 166L272 289Z"  horiz-adv-x="799" vert-adv-y="1000"  />

      
      <glyph glyph-name="uni27" unicode="&#x27;" d="M233 714L213 456L79 456L59 714L233 714Z"  horiz-adv-x="292" vert-adv-y="1000"  />

      
      <glyph glyph-name="uni28" unicode="&#x28;" d="M36 284Q36 366 49 446.50Q62 527 92.50 600.50Q123 674 173 734L332 734Q265 640 234.50 522Q204 404 204 285Q204 208 217 129Q230 50 258.50-23.50Q287-97 331-158L173-158Q123-99 92.50-27Q62 45 49 124.50Q36 204 36 284Z"  horiz-adv-x="359" vert-adv-y="1000"  />

      
      <glyph glyph-name="uni29" unicode="&#x29;" d="M323 284Q323 204 310 124.50Q297 45 267-27Q237-99 186-158L28-158Q73-97 101-23.50Q129 50 142 129Q155 208 155 285Q155 404 125 522Q95 640 27 734L186 734Q237 674 267 600.50Q297 527 310 446.50Q323 366 323 284Z"  horiz-adv-x="359" vert-adv-y="1000"  />

      
      <glyph glyph-name="uni2a" unicode="&#x2a;" d="M343 760L324 588L498 637L516 493L363 483L464 347L337 280L267 418L207 281L74 347L175 483L22 495L44 637L214 588L195 760L343 760Z"  horiz-adv-x="537" vert-adv-y="1000"  />

      
      <glyph glyph-name="uni2b" unicode="&#x2b;" d="M358 418L540 418L540 287L358 287L358 111L227 111L227 287L45 287L45 418L227 418L227 597L358 597L358 418Z"  horiz-adv-x="586" vert-adv-y="1000"  />

      
      <glyph glyph-name="uni2c" unicode="&#x2c;" d="M250 135Q241 99 227 49Q213-1 197-51.50Q181-102 164-139L28-139Q38-93 47-42.50Q56 8 64 57Q72 106 76 146L243 146L250 135Z"  horiz-adv-x="309" vert-adv-y="1000"  />

      
      <glyph glyph-name="uni2d" unicode="&#x2d;" d="M21 192L21 344L297 344L297 192L21 192Z"  horiz-adv-x="318" vert-adv-y="1000"  />

      
      <glyph glyph-name="uni2e" unicode="&#x2e;" d="M42 81Q42 133 72.50 154Q103 175 146 175Q187 175 216.50 154Q246 133 246 81Q246 32 216.50 10Q187-12 146-12Q103-12 72.50 10Q42 32 42 81Z"  horiz-adv-x="289" vert-adv-y="1000"  />

      
      <glyph glyph-name="uni2f" unicode="&#x2f;" d="M440 724L174-10L5-10L271 724L440 724Z"  horiz-adv-x="442" vert-adv-y="1000"  />

      
      <glyph glyph-name="uni30" unicode="&#x30;" d="M551 356Q551 242 526.50 160Q502 78 445.50 34Q389-10 293-10Q159-10 97 87Q35 184 35 356Q35 472 59.50 554Q84 636 141 680Q198 724 293 724Q427 724 489 627Q551 530 551 356M227 356Q227 251 240 197.50Q253 144 293 144Q333 144 346 197Q359 250 359 356Q359 462 346 516Q333 570 293 570Q253 570 240 516Q227 462 227 356Z"  horiz-adv-x="586" vert-adv-y="1000"  />

      
      <glyph glyph-name="uni31" unicode="&#x31;" d="M460 0L264 0L264 353Q264 363 264 389Q264 415 265 447Q266 479 267 504Q254 489 243.50 478Q233 467 222 458L141 391L41 514L286 714L460 714L460 0Z"  horiz-adv-x="586" vert-adv-y="1000"  />

      
      <glyph glyph-name="uni32" unicode="&#x32;" d="M548 0L30 0L30 127L204 303Q258 360 288.50 394Q319 428 331 452Q343 476 343 502Q343 534 322.50 548Q302 562 274 562Q240 562 206 543Q172 524 128 486L22 610Q54 639 90.50 665Q127 691 176 707.50Q225 724 296 724Q369 724 422 698.50Q475 673 504.50 629Q534 585 534 529Q534 467 511.50 418.50Q489 370 443.50 321.50Q398 273 330 211L278 164L278 159L548 159L548 0Z"  horiz-adv-x="586" vert-adv-y="1000"  />

      
      <glyph glyph-name="uni33" unicode="&#x33;" d="M524 559Q524 508 502 471.50Q480 435 444.50 411.50Q409 388 366 376L366 373Q452 363 498.50 321.50Q545 280 545 204Q545 146 513.50 97Q482 48 416.50 19Q351-10 247-10Q178-10 129 0.50Q80 11 34 29L34 189Q81 165 130 153.50Q179 142 219 142Q290 142 315.50 162Q341 182 341 216Q341 240 328.50 257.50Q316 275 283.50 284Q251 293 189 293L145 293L145 438L190 438Q272 438 304.50 459Q337 480 337 513Q337 542 315 555.50Q293 569 257 569Q225 569 196.50 560Q168 551 147 540.50Q126 530 115 523L35 652Q79 682 136.50 703Q194 724 287 724Q397 724 460.50 680Q524 636 524 559Z"  horiz-adv-x="586" vert-adv-y="1000"  />

      
      <glyph glyph-name="uni34" unicode="&#x34;" d="M571 138L492 138L492 0L302 0L302 138L17 138L17 280L314 714L492 714L492 282L571 282L571 138M302 365Q302 380 303 404.50Q304 429 305 449Q306 469 306 470L301 470Q291 448 283.50 434Q276 420 263 400L184 282L302 282L302 365Z"  horiz-adv-x="586" vert-adv-y="1000"  />

      
      <glyph glyph-name="uni35" unicode="&#x35;" d="M324 468Q384 468 433 441Q482 414 511 363Q540 312 540 238Q540 118 468 54Q396-10 250-10Q126-10 46 29L46 187Q84 170 137 156Q190 142 234 142Q287 142 316 165Q345 188 345 232Q345 273 315.50 296Q286 319 227 319Q200 319 174.50 313.50Q149 308 129 302L58 337L85 714L492 714L492 553L249 553L240 459Q256 462 272.50 465Q289 468 324 468Z"  horiz-adv-x="586" vert-adv-y="1000"  />

      
      <glyph glyph-name="uni36" unicode="&#x36;" d="M34 302Q34 363 43 424Q52 485 75 539Q98 593 140 634.50Q182 676 247.50 700Q313 724 408 724Q429 724 459.50 721.50Q490 719 510 716L510 565Q490 569 465 571.50Q440 574 404 574Q332 574 290 552.50Q248 531 229.50 490.50Q211 450 208 393L214 393Q233 428 265.50 452Q298 476 355 476Q449 476 502 415.50Q555 355 555 244Q555 124 487.50 57Q420-10 303-10Q227-10 166 23.50Q105 57 69.50 126Q34 195 34 302M299 143Q330 143 349 166.50Q368 190 368 240Q368 281 352 304Q336 327 301 327Q265 327 245.50 303Q226 279 226 250Q226 225 233.50 200Q241 175 257.50 159Q274 143 299 143Z"  horiz-adv-x="586" vert-adv-y="1000"  />

      
      <glyph glyph-name="uni37" unicode="&#x37;" d="M102 0L347 554L38 554L38 714L553 714L553 600L302 0L102 0Z"  horiz-adv-x="586" vert-adv-y="1000"  />

      
      <glyph glyph-name="uni38" unicode="&#x38;" d="M295 724Q401 724 467 681Q533 638 533 550Q533 486 498.50 444Q464 402 410 376Q444 357 477 331.50Q510 306 532 271.50Q554 237 554 190Q554 133 526 87.50Q498 42 440.50 16Q383-10 293-10Q157-10 95 45Q33 100 33 188Q33 262 70 303.50Q107 345 163 373Q118 403 86 446Q54 489 54 551Q54 609 85 647Q116 685 170.50 704.50Q225 724 295 724M294 585Q270 585 252.50 571Q235 557 235 533Q235 510 251.50 491.50Q268 473 292 459Q313 471 332.50 488Q352 505 352 533Q352 557 334.50 571Q317 585 294 585M210 196Q210 166 231.50 147.50Q253 129 291 129Q335 129 356 146Q377 163 377 192Q377 214 364 232Q351 250 334 263Q317 276 304 283L291 291Q258 274 234 251Q210 228 210 196Z"  horiz-adv-x="586" vert-adv-y="1000"  />

      
      <glyph glyph-name="uni39" unicode="&#x39;" d="M552 401Q552 274 514 181.50Q476 89 394 39.50Q312-10 179-10Q157-10 128-9Q99-8 79-5L79 148Q100 144 121 142Q142 140 170 140Q251 140 295 163Q339 186 357 227Q375 268 378 321L372 321Q353 285 321 261.50Q289 238 228 238Q138 238 84.50 298.50Q31 359 31 471Q31 590 98.50 657Q166 724 284 724Q359 724 419.50 690Q480 656 516 585Q552 514 552 401M289 570Q255 570 236.50 547Q218 524 218 473Q218 433 235.50 409.50Q253 386 287 386Q319 386 339.50 411Q360 436 360 464Q360 490 352.50 514Q345 538 329.50 554Q314 570 289 570Z"  horiz-adv-x="586" vert-adv-y="1000"  />

      
      <glyph glyph-name="uni3a" unicode="&#x3a;" d="M42 467Q42 518 72.50 539Q103 560 146 560Q187 560 216.50 539Q246 518 246 467Q246 417 216.50 395Q187 373 146 373Q103 373 72.50 395Q42 417 42 467M42 81Q42 133 72.50 154Q103 175 146 175Q187 175 216.50 154Q246 133 246 81Q246 32 216.50 10Q187-12 146-12Q103-12 72.50 10Q42 32 42 81Z"  horiz-adv-x="289" vert-adv-y="1000"  />

      
      <glyph glyph-name="uni3b" unicode="&#x3b;" d="M45 467Q45 518 75 539Q105 560 148 560Q189 560 219 539Q249 518 249 467Q249 417 219 395Q189 373 148 373Q105 373 75 395Q45 417 45 467M250 135Q241 99 227 49Q213-1 197-51.50Q181-102 164-139L28-139Q38-93 47-42.50Q56 8 64 57Q72 106 76 146L243 146L250 135Z"  horiz-adv-x="297" vert-adv-y="1000"  />

      
      <glyph glyph-name="uni3c" unicode="&#x3c;" d="M539 87L45 306L45 390L539 637L539 492L236 354L539 231L539 87Z"  horiz-adv-x="586" vert-adv-y="1000"  />

      
      <glyph glyph-name="uni3d" unicode="&#x3d;" d="M45 398L45 529L541 529L541 398L45 398M45 175L45 307L541 307L541 175L45 175Z"  horiz-adv-x="586" vert-adv-y="1000"  />

      
      <glyph glyph-name="uni3e" unicode="&#x3e;" d="M45 231L348 354L45 492L45 637L539 390L539 306L45 87L45 231Z"  horiz-adv-x="586" vert-adv-y="1000"  />

      
      <glyph glyph-name="uni3f" unicode="&#x3f;" d="M144 294Q144 339 162.50 372.50Q181 406 233 439Q266 460 282 475.50Q298 491 302.50 504Q307 517 307 530Q307 550 288.50 562Q270 574 240 574Q167 574 68 522L0 655Q55 687 118 705.50Q181 724 254 724Q365 724 426 675Q487 626 487 546Q487 488 460 445Q433 402 371 362Q327 334 310.50 317Q294 300 294 277L294 252L144 252L144 294M123 81Q123 133 153 154Q183 175 226 175Q267 175 297 154Q327 133 327 81Q327 32 297 10Q267-12 226-12Q183-12 153 10Q123 32 123 81Z"  horiz-adv-x="505" vert-adv-y="1000"  />

      
      <glyph glyph-name="uni40" unicode="&#x40;" d="M857 369Q857 322 845 276.50Q833 231 809.50 194.50Q786 158 751.50 136Q717 114 672 114Q636 114 604 129Q572 144 553 172L546 172Q524 147 492 130.50Q460 114 419 114Q326 114 280 168.50Q234 223 234 312Q234 378 262.50 430.50Q291 483 347 513.50Q403 544 484 544Q533 544 580 534.50Q627 525 658 514L648 308Q648 303 647.50 289.50Q647 276 647 262Q647 239 654 229.50Q661 220 671 220Q689 220 701.50 240.50Q714 261 721 295.50Q728 330 728 370Q728 482 664.50 548Q601 614 475 614Q376 614 308.50 573Q241 532 207 460.50Q173 389 173 296Q173 178 239.50 107Q306 36 439 36Q495 36 562.50 48.50Q630 61 690 83L690-29Q638-51 575.50-63Q513-75 446-75Q318-75 227-30Q136 15 88 99Q40 183 40 298Q40 388 70.50 465.50Q101 543 157.50 600.50Q214 658 294 690.50Q374 723 473 723Q589 723 675 680Q761 637 809 558Q857 479 857 369M371 313Q371 264 389 242Q407 220 436 220Q476 220 493 252.50Q510 285 514 358L519 434Q509 436 502 436.50Q495 437 486 437Q426 437 398.50 400Q371 363 371 313Z"  horiz-adv-x="897" vert-adv-y="1000"  />

      
      <glyph glyph-name="uni41" unicode="&#x41;" d="M515 0L480 134L248 134L212 0L0 0L233 717L490 717L726 0L515 0M409 409Q404 428 395 463.50Q386 499 377 537Q368 575 363 599Q359 575 350.50 539Q342 503 333.50 468Q325 433 319 409L288 292L440 292L409 409Z"  horiz-adv-x="726" vert-adv-y="1000"  />

      
      <glyph glyph-name="uni42" unicode="&#x42;" d="M326 714Q481 714 547 668Q613 622 613 536Q613 489 596 456.50Q579 424 553.50 405Q528 386 501 379L501 374Q530 367 559 350Q588 333 607.50 299.50Q627 266 627 209Q627 112 554 56Q481 0 355 0L77 0L77 714L326 714M328 440Q376 440 395.50 460Q415 480 415 508Q415 568 324 568L270 568L270 440L328 440M270 299L270 149L338 149Q388 149 408 170.50Q428 192 428 225Q428 254 408 276.50Q388 299 334 299L270 299Z"  horiz-adv-x="674" vert-adv-y="1000"  />

      
      <glyph glyph-name="uni43" unicode="&#x43;" d="M395 566Q327 566 288 510Q249 454 249 354Q249 253 288 200.50Q327 148 406 148Q453 148 497.50 161Q542 174 587 193L587 30Q540 9 490.50-0.50Q441-10 385-10Q269-10 195 36Q121 82 86 164.50Q51 247 51 355Q51 463 91 546Q131 629 208.50 676.50Q286 724 397 724Q449 724 506 712Q563 700 618 674L559 522Q520 541 480 553.50Q440 566 395 566Z"  horiz-adv-x="649" vert-adv-y="1000"  />

      
      <glyph glyph-name="uni44" unicode="&#x44;" d="M683 372Q683 248 636.50 165Q590 82 506 41Q422 0 308 0L77 0L77 714L324 714Q497 714 590 626Q683 538 683 372M483 365Q483 558 326 558L270 558L270 158L313 158Q401 158 442 209Q483 260 483 365Z"  horiz-adv-x="734" vert-adv-y="1000"  />

      
      <glyph glyph-name="uni45" unicode="&#x45;" d="M501 0L77 0L77 714L501 714L501 559L270 559L270 447L484 447L484 292L270 292L270 157L501 157L501 0Z"  horiz-adv-x="549" vert-adv-y="1000"  />

      
      <glyph glyph-name="uni46" unicode="&#x46;" d="M267 0L77 0L77 714L499 714L499 559L267 559L267 423L481 423L481 268L267 268L267 0Z"  horiz-adv-x="539" vert-adv-y="1000"  />

      
      <glyph glyph-name="uni47" unicode="&#x47;" d="M364 418L672 418L672 33Q617 14 545.50 2Q474-10 396-10Q293-10 215.50 30Q138 70 94.50 152Q51 234 51 359Q51 471 94 553Q137 635 220.50 679.50Q304 724 426 724Q493 724 553 711.50Q613 699 657 679L596 528Q558 547 516 556.50Q474 566 427 566Q363 566 324 537Q285 508 267.50 460Q250 412 250 354Q250 254 292 201.50Q334 149 412 149Q429 149 453.50 151.50Q478 154 491 157L491 269L364 269L364 418Z"  horiz-adv-x="740" vert-adv-y="1000"  />

      
      <glyph glyph-name="uni48" unicode="&#x48;" d="M689 0L495 0L495 291L271 291L271 0L77 0L77 714L271 714L271 449L495 449L495 714L689 714L689 0Z"  horiz-adv-x="766" vert-adv-y="1000"  />

      
      <glyph glyph-name="uni49" unicode="&#x49;" d="M406 0L34 0L34 110L123 144L123 571L34 604L34 714L406 714L406 604L317 571L317 144L406 110L406 0Z"  horiz-adv-x="440" vert-adv-y="1000"  />

      
      <glyph glyph-name="uni4a" unicode="&#x4a;" d="M21-224Q-12-224-36.50-221Q-61-218-79-214L-79-64Q-63-67-45.50-70.50Q-28-74-8-74Q44-74 62.50-42.50Q81-11 81 53L81 714L275 714L275 70Q275-37 242.50-102Q210-167 153-195.50Q96-224 21-224Z"  horiz-adv-x="352" vert-adv-y="1000"  />

      
      <glyph glyph-name="uni4b" unicode="&#x4b;" d="M687 0L469 0L328 273L271 239L271 0L77 0L77 714L271 714L271 404Q283 427 299 450.50Q315 474 330 495L480 714L691 714L466 394L687 0Z"  horiz-adv-x="687" vert-adv-y="1000"  />

      
      <glyph glyph-name="uni4c" unicode="&#x4c;" d="M77 0L77 714L270 714L270 156L545 156L545 0L77 0Z"  horiz-adv-x="582" vert-adv-y="1000"  />

      
      <glyph glyph-name="uni4d" unicode="&#x4d;" d="M388 0L242 514L238 514Q240 494 242 460Q244 426 246 386.50Q248 347 248 310L248 0L77 0L77 714L334 714L483 207L487 207L633 714L890 714L890 0L713 0L713 313Q713 347 714 385.50Q715 424 717 458.50Q719 493 720 513L716 513L572 0L388 0Z"  horiz-adv-x="967" vert-adv-y="1000"  />

      
      <glyph glyph-name="uni4e" unicode="&#x4e;" d="M757 0L504 0L243 503L239 503Q241 480 243 447.50Q245 415 246.50 382Q248 349 248 322L248 0L77 0L77 714L329 714L589 218L592 218Q591 241 589 272Q587 303 586 335Q585 367 585 391L585 714L757 714L757 0Z"  horiz-adv-x="834" vert-adv-y="1000"  />

      
      <glyph glyph-name="uni4f" unicode="&#x4f;" d="M745 358Q745 247 709.50 164.50Q674 82 597.50 36Q521-10 398-10Q278-10 201 36Q124 82 87.50 165Q51 248 51 359Q51 470 88 552.50Q125 635 202 680Q279 725 399 725Q521 725 597.50 679.50Q674 634 709.50 551.50Q745 469 745 358M254 358Q254 261 287.50 206Q321 151 398 151Q478 151 510 206Q542 261 542 358Q542 455 510 511Q478 567 399 567Q320 567 287 511Q254 455 254 358Z"  horiz-adv-x="797" vert-adv-y="1000"  />

      
      <glyph glyph-name="uni50" unicode="&#x50;" d="M324 714Q460 714 527.50 655Q595 596 595 487Q595 438 581 393.50Q567 349 535.50 313.50Q504 278 452 257.50Q400 237 324 237L270 237L270 0L77 0L77 714L324 714M320 558L270 558L270 394L308 394Q346 394 374 413.50Q402 433 402 482Q402 516 382 537Q362 558 320 558Z"  horiz-adv-x="632" vert-adv-y="1000"  />

      
      <glyph glyph-name="uni51" unicode="&#x51;" d="M745 358Q745 246 709 161Q673 76 591 31L765-170L525-170L405-10L398-10Q278-10 201 36Q124 82 87.50 165Q51 248 51 359Q51 470 88 552.50Q125 635 202 680Q279 725 399 725Q521 725 597.50 679.50Q674 634 709.50 551.50Q745 469 745 358M254 358Q254 261 287.50 206Q321 151 398 151Q478 151 510 206Q542 261 542 358Q542 455 510 511Q478 567 399 567Q320 567 287 511Q254 455 254 358Z"  horiz-adv-x="797" vert-adv-y="1000"  />

      
      <glyph glyph-name="uni52" unicode="&#x52;" d="M311 714Q602 714 602 503Q602 438 569.50 390.50Q537 343 481 311L689 0L470 0L319 260L270 260L270 0L77 0L77 714L311 714M308 568L270 568L270 405L306 405Q350 405 378.50 424.50Q407 444 407 494Q407 529 384 548.50Q361 568 308 568Z"  horiz-adv-x="677" vert-adv-y="1000"  />

      
      <glyph glyph-name="uni53" unicode="&#x53;" d="M544 217Q544 159 514.50 107Q485 55 423.50 22.50Q362-10 264-10Q215-10 178.50-5.50Q142-1 110 9Q78 19 44 35L44 207Q102 178 161 162.50Q220 147 268 147Q311 147 331 162Q351 177 351 200Q351 228 321.50 245.50Q292 263 222 294Q169 319 130 346.50Q91 374 70 414Q49 454 49 515Q49 584 83 630.50Q117 677 177.50 700.50Q238 724 318 724Q388 724 444 708.50Q500 693 544 673L485 524Q439 545 394.50 557.50Q350 570 312 570Q275 570 257.50 557Q240 544 240 524Q240 507 253 494Q266 481 296.50 465.50Q327 450 380 426Q432 403 468.50 375.50Q505 348 524.50 310.50Q544 273 544 217Z"  horiz-adv-x="577" vert-adv-y="1000"  />

      
      <glyph glyph-name="uni54" unicode="&#x54;" d="M392 0L199 0L199 556L25 556L25 714L566 714L566 556L392 556L392 0Z"  horiz-adv-x="591" vert-adv-y="1000"  />

      
      <glyph glyph-name="uni55" unicode="&#x55;" d="M684 284Q684 149 607.50 69.50Q531-10 376-10Q228-10 150.50 65.50Q73 141 73 280L73 714L267 714L267 295Q267 219 295.50 185Q324 151 379 151Q438 151 464.50 185.50Q491 220 491 296L491 714L684 714L684 284Z"  horiz-adv-x="757" vert-adv-y="1000"  />

      
      <glyph glyph-name="uni56" unicode="&#x56;" d="M694 714L460 0L233 0L0 714L217 714L314 352Q319 332 326 300Q333 268 339.50 236Q346 204 347 184Q349 204 354.50 235.50Q360 267 366.50 298.50Q373 330 379 350L478 714L694 714Z"  horiz-adv-x="694" vert-adv-y="1000"  />

      
      <glyph glyph-name="uni57" unicode="&#x57;" d="M1024 714L848 0L620 0L552 311Q550 320 546 341Q542 362 536.50 389Q531 416 527 442Q523 468 521 486Q519 468 514.50 442Q510 416 505 389Q500 362 495.50 341Q491 320 489 311L420 0L192 0L15 714L201 714L279 356Q282 343 287 318.50Q292 294 297.50 266Q303 238 308 211.50Q313 185 315 167Q319 197 325.50 236Q332 275 340 314.50Q348 354 355.50 388Q363 422 368 444L431 714L610 714L671 444Q676 423 683.50 388.50Q691 354 699 314Q707 274 714 235Q721 196 724 167Q727 192 734 229Q741 266 748 301.50Q755 337 759 355L838 714L1024 714Z"  horiz-adv-x="1039" vert-adv-y="1000"  />

      
      <glyph glyph-name="uni58" unicode="&#x58;" d="M720 0L497 0L358 223L220 0L2 0L239 365L16 714L230 714L359 493L483 714L703 714L477 350L720 0Z"  horiz-adv-x="723" vert-adv-y="1000"  />

      
      <glyph glyph-name="uni59" unicode="&#x59;" d="M332 449L455 714L664 714L429 279L429 0L235 0L235 273L0 714L210 714L332 449Z"  horiz-adv-x="664" vert-adv-y="1000"  />

      
      <glyph glyph-name="uni5a" unicode="&#x5a;" d="M586 0L30 0L30 119L339 558L37 558L37 714L578 714L578 595L269 156L586 156L586 0Z"  horiz-adv-x="611" vert-adv-y="1000"  />

      
      <glyph glyph-name="uni5b" unicode="&#x5b;" d="M301-168L57-168L57 734L301 734L301 610L212 610L212-44L301-44L301-168Z"  horiz-adv-x="324" vert-adv-y="1000"  />

      
      <glyph glyph-name="uni5c" unicode="&#x5c;" d="M172 724L438-10L269-10L3 724L172 724Z"  horiz-adv-x="442" vert-adv-y="1000"  />

      
      <glyph glyph-name="uni5d" unicode="&#x5d;" d="M23-44L112-44L112 610L23 610L23 734L267 734L267-168L23-168L23-44Z"  horiz-adv-x="324" vert-adv-y="1000"  />

      
      <glyph glyph-name="uni5e" unicode="&#x5e;" d="M-8 245L207 717L290 717L538 245L394 245L253 527L132 245L-8 245Z"  horiz-adv-x="525" vert-adv-y="1000"  />

      
      <glyph glyph-name="uni5f" unicode="&#x5f;" d="M502-185L-2-185L-2-65L502-65L502-185Z"  horiz-adv-x="500" vert-adv-y="1000"  />

      
      <glyph glyph-name="uni60" unicode="&#x60;" d="M250 766Q267 744 290.50 717Q314 690 338 664.50Q362 639 378 620L378 606L251 606Q231 619 202.50 638.50Q174 658 143.50 679.50Q113 701 85.50 721.50Q58 742 40 756L40 766L250 766Z"  horiz-adv-x="418" vert-adv-y="1000"  />

      
      <glyph glyph-name="uni61" unicode="&#x61;" d="M336 563Q441 563 500 511Q559 459 559 363L559 0L427 0L390 73L386 73Q363 44 338.50 25.50Q314 7 282-1.50Q250-10 204-10Q132-10 84 34Q36 78 36 169Q36 258 97.50 301Q159 344 276 349L368 352L368 360Q368 397 350 412.50Q332 428 301 428Q268 428 228 416.50Q188 405 147 387L92 513Q140 538 200.50 550.50Q261 563 336 563M325 245Q273 243 251.50 226.50Q230 210 230 180Q230 152 245 138.50Q260 125 285 125Q320 125 344.50 147Q369 169 369 204L369 247L325 245Z"  horiz-adv-x="623" vert-adv-y="1000"  />

      
      <glyph glyph-name="uni62" unicode="&#x62;" d="M257 588Q257 559 255 532Q253 505 250 482L257 482Q278 516 313 539.50Q348 563 404 563Q490 563 545 490Q600 417 600 278Q600 136 544 63Q488-10 398-10Q340-10 309 10.50Q278 31 257 54L245 54L215 0L66 0L66 760L257 760L257 588M334 413Q294 413 275.50 385Q257 357 257 298L257 271Q257 207 274.50 175.50Q292 144 336 144Q406 144 406 280Q406 413 334 413Z"  horiz-adv-x="643" vert-adv-y="1000"  />

      
      <glyph glyph-name="uni63" unicode="&#x63;" d="M318-10Q192-10 117 58Q42 126 42 274Q42 375 80 438.50Q118 502 183.50 532.50Q249 563 333 563Q384 563 429.50 552Q475 541 514 521L458 380Q424 395 394.50 404Q365 413 333 413Q290 413 263 379Q236 345 236 275Q236 203 263.50 172.50Q291 142 334 142Q375 142 416.50 155Q458 168 495 191L495 39Q461 17 418 3.50Q375-10 318-10Z"  horiz-adv-x="539" vert-adv-y="1000"  />

      
      <glyph glyph-name="uni64" unicode="&#x64;" d="M238-10Q153-10 97.50 63Q42 136 42 276Q42 418 98.50 490.50Q155 563 245 563Q301 563 334.50 540Q368 517 390 482L394 482Q390 503 387.50 540Q385 577 385 612L385 760L577 760L577 0L433 0L392 70L385 70Q365 37 330 13.50Q295-10 238-10M316 141Q362 141 381 170Q400 199 401 259L401 274Q401 339 382.50 374Q364 409 314 409Q280 409 257.50 376Q235 343 235 273Q235 204 257.50 172.50Q280 141 316 141Z"  horiz-adv-x="643" vert-adv-y="1000"  />

      
      <glyph glyph-name="uni65" unicode="&#x65;" d="M315 563Q436 563 506 500Q576 437 576 310L576 225L235 225Q237 182 267.50 154Q298 126 356 126Q408 126 451 136Q494 146 540 168L540 31Q500 10 452.50 0Q405-10 333-10Q249-10 183.50 19.50Q118 49 80 112Q42 175 42 273Q42 373 76.50 437Q111 501 172.50 532Q234 563 315 563M322 433Q288 433 265.50 412Q243 391 239 345L403 345Q402 382 381.50 407.50Q361 433 322 433Z"  horiz-adv-x="618" vert-adv-y="1000"  />

      
      <glyph glyph-name="uni66" unicode="&#x66;" d="M404 410L286 410L286 0L95 0L95 410L22 410L22 504L99 551L99 560Q99 667 143 716Q187 765 287 765Q330 765 365 758.50Q400 752 438 739L397 615Q383 619 365.50 622Q348 625 328 625Q286 625 286 568L286 553L404 553L404 410Z"  horiz-adv-x="413" vert-adv-y="1000"  />

      
      <glyph glyph-name="uni67" unicode="&#x67;" d="M243 563Q301 563 336.50 540.50Q372 518 394 485L398 485L412 553L577 553L577-1Q577-118 504.50-179Q432-240 282-240Q215-240 164-233Q113-226 66-208L66-49Q116-70 161-80.50Q206-91 271-91Q386-91 386-9L386 1Q386 30 392 70L386 70Q367 37 332 13.50Q297-10 240-10Q152-10 97 63Q42 136 42 276Q42 416 98 489.50Q154 563 243 563M315 415Q236 415 236 273Q236 201 256 169.50Q276 138 318 138Q365 138 383 167.50Q401 197 401 256L401 279Q401 344 383.50 379.50Q366 415 315 415Z"  horiz-adv-x="643" vert-adv-y="1000"  />

      
      <glyph glyph-name="uni68" unicode="&#x68;" d="M257 652Q257 591 254 549Q251 507 249 485L258 485Q285 528 323 545.50Q361 563 410 563Q465 563 509 542Q553 521 579.50 476.50Q606 432 606 360L606 0L414 0L414 302Q414 413 348 413Q296 413 276.50 369Q257 325 257 243L257 0L66 0L66 760L257 760L257 652Z"  horiz-adv-x="670" vert-adv-y="1000"  />

      
      <glyph glyph-name="uni69" unicode="&#x69;" d="M163 776Q204 776 234.50 759Q265 742 265 691Q265 642 234.50 624.50Q204 607 163 607Q121 607 91.50 624.50Q62 642 62 691Q62 742 91.50 759Q121 776 163 776M258 553L258 0L67 0L67 553L258 553Z"  horiz-adv-x="325" vert-adv-y="1000"  />

      
      <glyph glyph-name="uni6a" unicode="&#x6a;" d="M61 691Q61 742 90.50 759Q120 776 162 776Q203 776 233.50 759Q264 742 264 691Q264 642 233.50 624.50Q203 607 162 607Q120 607 90.50 624.50Q61 642 61 691M52-240Q29-240-1-236.50Q-31-233-51-228L-51-79Q-35-83-21.50-85.50Q-8-88 8-88Q31-88 48.50-71.50Q66-55 66-5L66 553L257 553L257-45Q257-95 237.50-139.50Q218-184 173-212Q128-240 52-240Z"  horiz-adv-x="324" vert-adv-y="1000"  />

      
      <glyph glyph-name="uni6b" unicode="&#x6b;" d="M258 461Q258 427 255 386Q252 345 247 311L251 311Q262 328 279.50 354Q297 380 310 397L434 553L647 553L455 318L659 0L441 0L320 198L258 151L258 0L66 0L66 760L258 760L258 461Z"  horiz-adv-x="659" vert-adv-y="1000"  />

      
      <glyph glyph-name="uni6c" unicode="&#x6c;" d="M257 0L66 0L66 760L257 760L257 0Z"  horiz-adv-x="323" vert-adv-y="1000"  />

      
      <glyph glyph-name="uni6d" unicode="&#x6d;" d="M741 563Q836 563 886 515Q936 467 936 360L936 0L745 0L745 301Q745 364 728 388.50Q711 413 678 413Q632 413 614 372.50Q596 332 596 258L596 0L405 0L405 301Q405 361 389 387Q373 413 341 413Q292 413 274.50 369Q257 325 257 242L257 0L66 0L66 553L210 553L238 485L243 485Q265 519 306.50 541Q348 563 409 563Q470 563 509.50 542.50Q549 522 574 486L580 486Q606 523 647.50 543Q689 563 741 563Z"  horiz-adv-x="1000" vert-adv-y="1000"  />

      
      <glyph glyph-name="uni6e" unicode="&#x6e;" d="M412 563Q498 563 552 515Q606 467 606 360L606 0L415 0L415 302Q415 357 399 385Q383 413 348 413Q294 413 275.50 369Q257 325 257 242L257 0L66 0L66 553L210 553L236 480L243 480Q269 519 311.50 541Q354 563 412 563Z"  horiz-adv-x="670" vert-adv-y="1000"  />

      
      <glyph glyph-name="uni6f" unicode="&#x6f;" d="M594 278Q594 139 520 64.50Q446-10 317-10Q237-10 175 23.50Q113 57 77.50 121.50Q42 186 42 278Q42 415 116 489Q190 563 320 563Q400 563 461.50 530Q523 497 558.50 433.50Q594 370 594 278M236 278Q236 207 255 169.50Q274 132 319 132Q363 132 381.50 169.50Q400 207 400 278Q400 349 381.50 385Q363 421 318 421Q275 421 255.50 385Q236 349 236 278Z"  horiz-adv-x="637" vert-adv-y="1000"  />

      
      <glyph glyph-name="uni70" unicode="&#x70;" d="M404 563Q496 563 548 489.50Q600 416 600 278Q600 184 573.50 119.50Q547 55 501.50 22.50Q456-10 398-10Q340-10 307.50 11Q275 32 257 54L251 54Q253 35 255 13Q257-9 257-38L257-240L66-240L66 553L221 553L248 483L257 483Q277 515 311.50 539Q346 563 404 563M332 413Q290 413 274.50 383Q259 353 257 294L257 279Q257 213 273 178.50Q289 144 333 144Q369 144 387.50 175.50Q406 207 406 280Q406 353 387 383Q368 413 332 413Z"  horiz-adv-x="643" vert-adv-y="1000"  />

      
      <glyph glyph-name="uni71" unicode="&#x71;" d="M386-11Q386 30 392 70L386 70Q367 37 332 13.50Q297-10 240-10Q152-10 97 63Q42 136 42 276Q42 416 98 489.50Q154 563 243 563Q301 563 336.50 540.50Q372 518 394 485L398 485L412 553L577 553L577-240L386-240L386-11M318 138Q365 138 383 167.50Q401 197 401 256L401 279Q401 344 383.50 379.50Q366 415 315 415Q236 415 236 273Q236 201 256 169.50Q276 138 318 138Z"  horiz-adv-x="643" vert-adv-y="1000"  />

      
      <glyph glyph-name="uni72" unicode="&#x72;" d="M400 563Q416 563 433 561Q450 559 458 557L441 377Q431 379 416.50 381Q402 383 376 383Q352 383 324.50 376Q297 369 277 345.50Q257 322 257 272L257 0L66 0L66 553L208 553L238 465L247 465Q270 506 311.50 534.50Q353 563 400 563Z"  horiz-adv-x="469" vert-adv-y="1000"  />

      
      <glyph glyph-name="uni73" unicode="&#x73;" d="M477 170Q477 118 453.50 77Q430 36 378.50 13Q327-10 243-10Q184-10 137.50-3.50Q91 3 43 21L43 174Q96 150 150 139.50Q204 129 235 129Q297 129 297 157Q297 169 287 178Q277 187 251.50 198Q226 209 179 228Q110 257 76 294.50Q42 332 42 400Q42 481 104.50 522Q167 563 270 563Q325 563 373 551Q421 539 473 516L421 393Q380 412 338 423Q296 434 271 434Q224 434 224 411Q224 401 232.50 393Q241 385 265 375Q289 365 335 346Q383 327 414.50 304.50Q446 282 461.50 250.50Q477 219 477 170Z"  horiz-adv-x="517" vert-adv-y="1000"  />

      
      <glyph glyph-name="uni74" unicode="&#x74;" d="M337 141Q363 141 384.50 146.50Q406 152 429 160L429 21Q398 8 363-1Q328-10 274-10Q220-10 179.50 7Q139 24 116 65.50Q93 107 93 182L93 410L26 410L26 488L111 548L160 664L285 664L285 553L421 553L421 410L285 410L285 195Q285 141 337 141Z"  horiz-adv-x="460" vert-adv-y="1000"  />

      
      <glyph glyph-name="uni75" unicode="&#x75;" d="M604 553L604 0L460 0L436 69L425 69Q399 27 354 8.50Q309-10 258-10Q204-10 160 11Q116 32 90.50 77Q65 122 65 193L65 553L256 553L256 251Q256 197 271.50 169Q287 141 322 141Q376 141 394.50 185Q413 229 413 311L413 553L604 553Z"  horiz-adv-x="670" vert-adv-y="1000"  />

      
      <glyph glyph-name="uni76" unicode="&#x76;" d="M211 0L0 553L199 553L293 226Q295 222 298.50 204Q302 186 302 170L305 170Q305 187 308.50 202Q312 217 314 225L412 553L611 553L400 0L211 0Z"  horiz-adv-x="611" vert-adv-y="1000"  />

      
      <glyph glyph-name="uni77" unicode="&#x77;" d="M484 242Q478 267 472 300Q466 333 461.50 362.50Q457 392 455 407L452 407Q450 392 445 362Q440 332 433.50 298Q427 264 420 235L364 0L163 0L12 553L200 553L245 341Q250 318 255 285.50Q260 253 264.50 219.50Q269 186 270 159L273 159Q274 179 278 205Q282 231 286.50 257Q291 283 295 303Q299 323 300 330L351 553L562 553L609 327Q613 308 618.50 278.50Q624 249 629.50 217Q635 185 637 159L640 159Q642 186 646 220.50Q650 255 655 287.50Q660 320 665 341L714 553L898 553L746 0L542 0L484 242Z"  horiz-adv-x="910" vert-adv-y="1000"  />

      
      <glyph glyph-name="uni78" unicode="&#x78;" d="M183 282L14 553L231 553L315 398L401 553L618 553L445 282L625 0L408 0L315 168L222 0L5 0L183 282Z"  horiz-adv-x="630" vert-adv-y="1000"  />

      
      <glyph glyph-name="uni79" unicode="&#x79;" d="M-1 553L200 553L294 236Q297 226 299.50 209Q302 192 303 176L307 176Q309 196 312.50 210.50Q316 225 319 235L415 553L610 553L391-35Q366-102 332.50-148Q299-194 250-217Q201-240 128-240Q102-240 83-237.50Q64-235 50-232L50-82Q61-84 76.50-86Q92-88 109-88Q156-88 178.50-60.50Q201-33 215 3L217 8L-1 553Z"  horiz-adv-x="610" vert-adv-y="1000"  />

      
      <glyph glyph-name="uni7a" unicode="&#x7a;" d="M482 0L24 0L24 109L253 407L37 407L37 553L471 553L471 435L252 146L482 146L482 0Z"  horiz-adv-x="507" vert-adv-y="1000"  />

      
      <glyph glyph-name="uni7b" unicode="&#x7b;" d="M401-168Q299-168 244.50-150.50Q190-133 170-95.50Q150-58 150 0L150 121Q150 151 132.50 169.50Q115 188 87.50 196Q60 204 30 204L30 351Q61 351 88.50 359Q116 367 133 385.50Q150 404 150 434L150 558Q150 615 169.50 652Q189 689 243 706.50Q297 724 401 724L401 588Q381 588 359.50 585Q338 582 323 571.50Q308 561 308 536L308 404Q308 343 277.50 316Q247 289 191 281L191 275Q248 266 278 239Q308 212 308 155L308 20Q308-4 323-15Q338-26 360-28.50Q382-31 401-32L401-168Z"  horiz-adv-x="433" vert-adv-y="1000"  />

      
      <glyph glyph-name="uni7c" unicode="&#x7c;" d="M189 760L320 760L320-218L189-218L189 760Z"  horiz-adv-x="509" vert-adv-y="1000"  />

      
      <glyph glyph-name="uni7d" unicode="&#x7d;" d="M32-32Q52-31 73.50-28.50Q95-26 110-15Q125-4 125 20L125 155Q125 212 155 239Q185 266 242 275L242 281Q187 289 156 316Q125 343 125 404L125 536Q125 561 110 571.50Q95 582 73.50 585Q52 588 32 588L32 724Q136 724 190 706.50Q244 689 263.50 652Q283 615 283 558L283 434Q283 404 300 385.50Q317 367 344.50 359Q372 351 403 351L403 204Q373 204 345.50 196Q318 188 300.50 169.50Q283 151 283 121L283 0Q283-58 263-95.50Q243-133 189-150.50Q135-168 32-168L32-32Z"  horiz-adv-x="433" vert-adv-y="1000"  />

      
      <glyph glyph-name="uni7e" unicode="&#x7e;" d="M274 289Q237 305 209.50 310.50Q182 316 159 316Q130 316 100.50 299Q71 282 45 257L45 394Q71 420 102.50 433.50Q134 447 174 447Q203 447 232.50 441.50Q262 436 311 416Q348 400 376.50 394.50Q405 389 427 389Q455 389 485 406Q515 423 540 448L540 311Q489 258 411 258Q382 258 352.50 264Q323 270 274 289Z"  horiz-adv-x="586" vert-adv-y="1000"  />

      
      <glyph glyph-name="unia1" unicode="&#xa1;" d="M249 470Q249 418 218.50 397Q188 376 146 376Q105 376 75 397Q45 418 45 470Q45 520 75 541.50Q105 563 146 563Q188 563 218.50 541.50Q249 520 249 470M65 299L226 299L251-163L40-163L65 299Z"  horiz-adv-x="290" vert-adv-y="1000"  />

      
      <glyph glyph-name="unia2" unicode="&#xa2;" d="M377 649Q421 647 461 636Q501 625 535 608L479 467Q445 482 415.50 491Q386 500 354 500Q311 500 284 466Q257 432 257 362Q257 290 284.50 259.50Q312 229 355 229Q396 229 437.50 242Q479 255 516 278L516 126Q488 107 454 95Q420 83 377 78L377-10L276-10L276 81Q177 96 120 164.50Q63 233 63 361Q63 487 122.50 555.50Q182 624 276 643L276 724L377 724L377 649Z"  horiz-adv-x="586" vert-adv-y="1000"  />

      
      <glyph glyph-name="unia3" unicode="&#xa3;" d="M353 725Q406 725 457 714Q508 703 551 685L497 544Q460 558 428.50 564.50Q397 571 374 571Q351 571 335 557.50Q319 544 319 504L319 452L487 452L487 317L319 317L319 270Q319 238 307 216.50Q295 195 277 181.50Q259 168 241 159L569 159L569 0L51 0L51 153Q78 169 95.50 182.50Q113 196 122 216Q131 236 131 269L131 317L50 317L50 452L131 452L131 510Q131 623 192.50 674Q254 725 353 725Z"  horiz-adv-x="586" vert-adv-y="1000"  />

      
      <glyph glyph-name="unia4" unicode="&#xa4;" d="M88 353Q88 376 93.50 398Q99 420 108 439L47 497L135 586L195 526Q214 535 237 540.50Q260 546 279 546Q324 546 365 524L424 586L514 501L452 440Q472 403 472 353Q472 306 452 267L511 209L424 122L365 180Q346 172 324 166.50Q302 161 279 161Q256 161 234.50 165Q213 169 193 179L135 123L48 210L108 268Q88 307 88 353M213 353Q213 325 232.50 306Q252 287 279 287Q308 287 328 306Q348 325 348 353Q348 382 328 401Q308 420 279 420Q252 420 232.50 401Q213 382 213 353Z"  horiz-adv-x="566" vert-adv-y="1000"  />

      
      <glyph glyph-name="unia5" unicode="&#xa5;" d="M293 468L387 714L582 714L405 366L500 366L500 263L382 263L382 206L500 206L500 104L382 104L382 0L204 0L204 104L84 104L84 206L204 206L204 263L84 263L84 366L177 366L4 714L199 714L293 468Z"  horiz-adv-x="586" vert-adv-y="1000"  />

      
      <glyph glyph-name="unia6" unicode="&#xa6;" d="M189 760L320 760L320 350L189 350L189 760M189 192L320 192L320-218L189-218L189 192Z"  horiz-adv-x="509" vert-adv-y="1000"  />

      
      <glyph glyph-name="unia7" unicode="&#xa7;" d="M52 392Q52 430 77.50 459Q103 488 132 506Q98 530 80.50 559.50Q63 589 63 626Q63 689 114.50 729.50Q166 770 261 770Q311 770 358 758Q405 746 442 728L394 620Q362 637 326.50 649.50Q291 662 260 662Q207 662 207 626Q207 610 224 592Q241 574 292 553Q378 519 415.50 479Q453 439 453 392Q453 342 430.50 314Q408 286 381 266Q408 246 425 216Q442 186 442 147Q442 80 388.50 34Q335-12 229-12Q129-12 57 30L57 149Q100 126 148 111Q196 96 230 96Q268 96 283 109Q298 122 298 143Q298 163 283 178.50Q268 194 215 217Q167 239 130.50 261.50Q94 284 73 315Q52 346 52 392M194 407Q194 382 214 363.50Q234 345 278 322L291 315Q298 323 304.50 335.50Q311 348 311 367Q311 393 292 414Q273 435 222 457Q212 451 203 439Q194 427 194 407Z"  horiz-adv-x="500" vert-adv-y="1000"  />

      
      <glyph glyph-name="unia8" unicode="&#xa8;" d="M109 690Q109 730 133 748.50Q157 767 192 767Q226 767 251 748.50Q276 730 276 690Q276 651 251 632.50Q226 614 192 614Q157 614 133 632.50Q109 651 109 690M343 690Q343 730 367 748.50Q391 767 427 767Q461 767 486 748.50Q511 730 511 690Q511 651 486 632.50Q461 614 427 614Q391 614 367 632.50Q343 651 343 690Z"  horiz-adv-x="602" vert-adv-y="1000"  />

      
      <glyph glyph-name="unia9" unicode="&#xa9;" d="M412-10Q332-10 265 17Q198 44 148.50 93.50Q99 143 72 210Q45 277 45 357Q45 437 72 504Q99 571 148.50 620.50Q198 670 265 697Q332 724 412 724Q492 724 559 697Q626 670 675.50 620.50Q725 571 752 504Q779 437 779 357Q779 277 752 210Q725 143 675.50 93.50Q626 44 559 17Q492-10 412-10M412 70Q494 70 556 106.50Q618 143 653.50 208Q689 273 689 357Q689 442 653.50 506.50Q618 571 556 607.50Q494 644 412 644Q330 644 267 607.50Q204 571 168.50 506.50Q133 442 133 357Q133 273 168.50 208Q204 143 267 106.50Q330 70 412 70M413 128Q305 128 250.50 191Q196 254 196 359Q196 461 249 523Q302 585 408 585Q453 585 491 575Q529 565 565 547L520 447Q495 461 470.50 467.50Q446 474 417 474Q378 474 355.50 444Q333 414 333 357Q333 295 354.50 267Q376 239 420 239Q452 239 484 247Q516 255 546 272L546 159Q515 143 483.50 135.50Q452 128 413 128Z"  horiz-adv-x="824" vert-adv-y="1000"  />

      
      <glyph glyph-name="uniaa" unicode="&#xaa;" d="M213 722Q278 722 318 687Q358 652 358 581L358 362L279 362L257 424Q235 390 208.50 373Q182 356 138 356Q90 356 57 384.50Q24 413 24 472Q24 536 67.50 559.50Q111 583 192 587L235 589L235 592Q235 629 185 629Q159 629 136.50 622.50Q114 616 82 602L45 683Q82 701 118 711.50Q154 722 213 722M194 519Q164 517 155.50 504.50Q147 492 147 478Q147 445 181 445Q208 445 221.50 465.50Q235 486 235 511L235 522L194 519Z"  horiz-adv-x="397" vert-adv-y="1000"  />

      
      <glyph glyph-name="uniab" unicode="&#xab;" d="M36 287L226 523L363 450L230 281L363 111L226 39L36 274L36 287M317 287L506 523L644 450L510 281L644 111L506 39L317 274L317 287Z"  horiz-adv-x="681" vert-adv-y="1000"  />

      
      <glyph glyph-name="uniac" unicode="&#xac;" d="M540 418L540 116L408 116L408 287L45 287L45 418L540 418Z"  horiz-adv-x="586" vert-adv-y="1000"  />

      
      <glyph glyph-name="uniad" unicode="&#xad;" d="M21 192L21 344L297 344L297 192L21 192Z"  horiz-adv-x="318" vert-adv-y="1000"  />

      
      <glyph glyph-name="uniae" unicode="&#xae;" d="M412-10Q332-10 265 17Q198 44 148.50 93.50Q99 143 72 210Q45 277 45 357Q45 437 72 504Q99 571 148.50 620.50Q198 670 265 697Q332 724 412 724Q492 724 559 697Q626 670 675.50 620.50Q725 571 752 504Q779 437 779 357Q779 277 752 210Q725 143 675.50 93.50Q626 44 559 17Q492-10 412-10M412 70Q494 70 556 106.50Q618 143 653.50 208Q689 273 689 357Q689 442 653.50 506.50Q618 571 556 607.50Q494 644 412 644Q330 644 267 607.50Q204 571 168.50 506.50Q133 442 133 357Q133 273 168.50 208Q204 143 267 106.50Q330 70 412 70M253 153L253 580L389 580Q493 580 537.50 545.50Q582 511 582 448Q582 397 562 370.50Q542 344 513 330L608 153L472 153L401 309L384 309L384 153L253 153M389 395Q418 395 434 405.50Q450 416 450 443Q450 469 434 477Q418 485 390 485L384 485L384 395L389 395Z"  horiz-adv-x="824" vert-adv-y="1000"  />

      
      <glyph glyph-name="uniaf" unicode="&#xaf;" d="M503 760L-3 760L-3 880L503 880L503 760Z"  horiz-adv-x="500" vert-adv-y="1000"  />

      
      <glyph glyph-name="unib0" unicode="&#xb0;" d="M211 366Q159 366 118 388.50Q77 411 54 451.50Q31 492 31 544Q31 596 54 636.50Q77 677 118 700.50Q159 724 211 724Q264 724 304.50 700.50Q345 677 368 636.50Q391 596 391 544Q391 492 368 451.50Q345 411 304.50 388.50Q264 366 211 366M211 482Q240 482 257.50 499Q275 516 275 544Q275 573 257.50 591Q240 609 211 609Q182 609 164.50 591Q147 573 147 544Q147 516 164.50 499Q182 482 211 482Z"  horiz-adv-x="422" vert-adv-y="1000"  />

      
      <glyph glyph-name="unib1" unicode="&#xb1;" d="M358 461L540 461L540 330L358 330L358 154L227 154L227 330L45 330L45 461L227 461L227 640L358 640L358 461M45 0L45 131L540 131L540 0L45 0Z"  horiz-adv-x="586" vert-adv-y="1000"  />

      
      <glyph glyph-name="unib2" unicode="&#xb2;" d="M366 416L37 416L37 517L142 621Q184 663 199.50 685Q215 707 215 723Q215 751 183 751Q167 751 147 742.50Q127 734 99 708L30 789Q63 819 104.50 837Q146 855 211 855Q283 855 319.50 823Q356 791 356 739Q356 700 338 668.50Q320 637 291 609Q262 581 229 553L197 526L366 526L366 416Z"  horiz-adv-x="399" vert-adv-y="1000"  />

      
      <glyph glyph-name="unib3" unicode="&#xb3;" d="M198 853Q272 853 313 824Q354 795 354 748Q354 711 336 684Q318 657 275 641L275 637Q368 613 368 532Q368 472 319.50 440Q271 408 185 408Q142 408 103 416.50Q64 425 34 442L34 556Q66 534 103 525Q140 516 179 516Q205 516 220.50 523.50Q236 531 236 549Q236 563 225 573.50Q214 584 170 584L119 584L119 679L158 679Q199 679 212.50 690Q226 701 226 717Q226 729 216 739.50Q206 750 181 750Q157 750 135.50 742Q114 734 88 714L31 797Q61 820 103 836.50Q145 853 198 853Z"  horiz-adv-x="399" vert-adv-y="1000"  />

      
      <glyph glyph-name="unib4" unicode="&#xb4;" d="M378 756Q360 742 333 721.50Q306 701 275 679.50Q244 658 215.50 638.50Q187 619 167 606L40 606L40 620Q57 639 81 664.50Q105 690 129 717Q153 744 169 766L378 766L378 756Z"  horiz-adv-x="418" vert-adv-y="1000"  />

      
      <glyph glyph-name="unib5" unicode="&#xb5;" d="M606 553L606 0L463 0L437 74L429 74Q413 31 385 10.50Q357-10 325-10Q298-10 282.50 0Q267 10 253 31L251 31Q253 10 255-23Q257-56 257-84L257-240L66-240L66 553L257 553L257 253Q257 197 273.50 169Q290 141 328 141Q377 141 395.50 185Q414 229 414 311L414 553L606 553Z"  horiz-adv-x="672" vert-adv-y="1000"  />

      
      <glyph glyph-name="unib6" unicode="&#xb6;" d="M579-127L486-127L486 648L409 648L409-127L316-127L316 273Q301 269 288.50 266.50Q276 264 255 264Q193 264 147 287Q101 310 75.50 364Q50 418 50 509Q50 605 77.50 659.50Q105 714 155 737Q205 760 270 760L579 760L579-127Z"  horiz-adv-x="643" vert-adv-y="1000"  />

      
      <glyph glyph-name="unib7" unicode="&#xb7;" d="M42 353Q42 405 72.50 426Q103 447 146 447Q187 447 216.50 426Q246 405 246 353Q246 304 216.50 282Q187 260 146 260Q103 260 72.50 282Q42 304 42 353Z"  horiz-adv-x="289" vert-adv-y="1000"  />

      
      <glyph glyph-name="unib8" unicode="&#xb8;" d="M264-123Q264-176 227.50-208Q191-240 130-240Q96-240 68-235Q40-230 22-223L22-129Q39-134 55-137Q71-140 87-140Q127-140 127-112Q127-95 110.50-85Q94-75 56-68L86 0L181 0L172-30Q192-34 213.50-44Q235-54 249.50-72.50Q264-91 264-123Z"  horiz-adv-x="288" vert-adv-y="1000"  />

      
      <glyph glyph-name="unib9" unicode="&#xb9;" d="M301 844L301 416L163 416L163 590Q163 601 164 623.50Q165 646 166 667.50Q167 689 168 696Q164 687 155 677.50Q146 668 138 661L99 627L28 710L194 844L301 844Z"  horiz-adv-x="399" vert-adv-y="1000"  />

      
      <glyph glyph-name="uniba" unicode="&#xba;" d="M369 539Q369 452 322 404Q275 356 195 356Q120 356 72 405Q24 454 24 539Q24 627 70.50 674.50Q117 722 197 722Q246 722 284.50 700Q323 678 346 637.50Q369 597 369 539M147 539Q147 455 196 455Q244 455 244 539Q244 624 196 624Q147 624 147 539Z"  horiz-adv-x="392" vert-adv-y="1000"  />

      
      <glyph glyph-name="unibb" unicode="&#xbb;" d="M645 274L456 39L317 111L451 281L317 450L456 523L645 287L645 274M364 274L175 39L37 111L170 281L37 450L175 523L364 287L364 274Z"  horiz-adv-x="681" vert-adv-y="1000"  />

      
      <glyph glyph-name="unibc" unicode="&#xbc;" d="M174 0L542 714L689 714L321 0L174 0M129 460Q129 474 130 506.50Q131 539 134 566Q132 562 124 552.50Q116 543 106 533L65 497L-6 580L160 714L267 714L267 286L129 286L129 460M683 0L683 68L502 68L502 160L673 431L817 431L817 166L878 166L878 68L817 68L817 0L683 0M606 166L683 166L683 247Q683 282 686 313Q676 288 668.50 272Q661 256 656 248L606 166Z"  horiz-adv-x="887" vert-adv-y="1000"  />

      
      <glyph glyph-name="unibd" unicode="&#xbd;" d="M186 0L554 714L701 714L333 0L186 0M129 460Q129 464 129.50 480Q130 496 131 515Q132 534 133 549Q134 564 134 566Q132 562 122.50 551Q113 540 103 531L65 497L-6 580L160 714L267 714L267 286L129 286L129 460M564 0L564 101L669 205Q710 246 726 268Q742 290 742 307Q742 335 710 335Q670 335 626 292L557 373Q596 409 638.50 424Q681 439 738 439Q807 439 845 408.50Q883 378 883 323Q883 283 864.50 252Q846 221 820 195L724 110L893 110L893 0L564 0Z"  horiz-adv-x="926" vert-adv-y="1000"  />

      
      <glyph glyph-name="unibe" unicode="&#xbe;" d="M195 278Q105 278 44 312L44 426Q100 386 189 386Q246 386 246 419Q246 439 230 446.50Q214 454 180 454L129 454L129 549L168 549Q236 549 236 587Q236 599 226 609.50Q216 620 191 620Q167 620 145.50 612Q124 604 98 584L41 667Q115 723 208 723Q280 723 322 695Q364 667 364 618Q364 580 346 553.50Q328 527 285 511L285 507Q378 483 378 402Q378 343 330 310.50Q282 278 195 278M227 0L595 714L742 714L374 0L227 0M718 0L718 68L537 68L537 160L708 431L852 431L852 166L913 166L913 68L852 68L852 0L718 0M641 166L718 166L718 247Q718 282 721 313Q711 288 703.50 272Q696 256 691 248L641 166Z"  horiz-adv-x="922" vert-adv-y="1000"  />

      
      <glyph glyph-name="unibf" unicode="&#xbf;" d="M361 257Q361 212 342.50 178.50Q324 145 272 112Q239 91 223 75.50Q207 60 202.50 47Q198 34 198 21Q198 1 216.50-11Q235-23 265-23Q338-23 437 29L505-104Q450-136 387-154.50Q324-173 251-173Q140-173 79-124Q18-75 18 5Q18 63 45 106Q72 149 134 189Q178 217 194.50 234Q211 251 211 274L211 299L361 299L361 257M382 470Q382 418 352 397Q322 376 279 376Q238 376 208 397Q178 418 178 470Q178 519 208 541Q238 563 279 563Q322 563 352 541Q382 519 382 470Z"  horiz-adv-x="505" vert-adv-y="1000"  />

      
      <glyph glyph-name="unic0" unicode="&#xc0;" d="M515 0L480 134L248 134L212 0L0 0L233 717L490 717L726 0L515 0M409 409Q404 428 395 463.50Q386 499 377 537Q368 575 363 599Q359 575 350.50 539Q342 503 333.50 468Q325 433 319 409L288 292L440 292L409 409M362 927Q379 905 402.50 878Q426 851 450 825.50Q474 800 490 781L490 767L363 767Q343 780 314.50 799.50Q286 819 255.50 840.50Q225 862 197.50 882.50Q170 903 152 917L152 927L362 927Z"  horiz-adv-x="726" vert-adv-y="1000"  />

      
      <glyph glyph-name="unic1" unicode="&#xc1;" d="M515 0L480 134L248 134L212 0L0 0L233 717L490 717L726 0L515 0M409 409Q404 428 395 463.50Q386 499 377 537Q368 575 363 599Q359 575 350.50 539Q342 503 333.50 468Q325 433 319 409L288 292L440 292L409 409M601 917Q583 903 556 882.50Q529 862 498 840.50Q467 819 438.50 799.50Q410 780 390 767L263 767L263 781Q280 800 304 825.50Q328 851 352 878Q376 905 392 927L601 927L601 917Z"  horiz-adv-x="726" vert-adv-y="1000"  />

      
      <glyph glyph-name="unic2" unicode="&#xc2;" d="M515 0L480 134L248 134L212 0L0 0L233 717L490 717L726 0L515 0M409 409Q404 428 395 463.50Q386 499 377 537Q368 575 363 599Q359 575 350.50 539Q342 503 333.50 468Q325 433 319 409L288 292L440 292L409 409M461 927Q477 904 499.50 876.50Q522 849 545.50 823.50Q569 798 586 781L586 767L462 767Q436 782 413 800Q390 818 364 840Q338 818 316.50 801Q295 784 269 767L143 767L143 781Q162 799 185.50 824.50Q209 850 231.50 877Q254 904 269 927L461 927Z"  horiz-adv-x="726" vert-adv-y="1000"  />

      
      <glyph glyph-name="unic3" unicode="&#xc3;" d="M515 0L480 134L248 134L212 0L0 0L233 717L490 717L726 0L515 0M409 409Q404 428 395 463.50Q386 499 377 537Q368 575 363 599Q359 575 350.50 539Q342 503 333.50 468Q325 433 319 409L288 292L440 292L409 409M156 765Q162 857 193.50 894.50Q225 932 279 932Q304 932 332.50 920.50Q361 909 389.50 897Q418 885 443 885Q452 885 462.50 893.50Q473 902 478 933L567 933Q561 843 528 804.50Q495 766 447 766Q418 766 388.50 778Q359 790 331.50 801.50Q304 813 279 813Q270 813 260 805Q250 797 244 765L156 765Z"  horiz-adv-x="726" vert-adv-y="1000"  />

      
      <glyph glyph-name="unic4" unicode="&#xc4;" d="M515 0L480 134L248 134L212 0L0 0L233 717L490 717L726 0L515 0M409 409Q404 428 395 463.50Q386 499 377 537Q368 575 363 599Q359 575 350.50 539Q342 503 333.50 468Q325 433 319 409L288 292L440 292L409 409M162 851Q162 891 186 909.50Q210 928 245 928Q279 928 304 909.50Q329 891 329 851Q329 812 304 793.50Q279 775 245 775Q210 775 186 793.50Q162 812 162 851M396 851Q396 891 420 909.50Q444 928 480 928Q514 928 539 909.50Q564 891 564 851Q564 812 539 793.50Q514 775 480 775Q444 775 420 793.50Q396 812 396 851Z"  horiz-adv-x="726" vert-adv-y="1000"  />

      
      <glyph glyph-name="unic5" unicode="&#xc5;" d="M515 0L480 134L248 134L212 0L0 0L233 717L490 717L726 0L515 0M409 409Q404 428 395 463.50Q386 499 377 537Q368 575 363 599Q359 575 350.50 539Q342 503 333.50 468Q325 433 319 409L288 292L440 292L409 409M360 636Q302 636 266.50 669Q231 702 231 759Q231 817 266.50 850Q302 883 360 883Q415 883 454 850Q493 817 493 760Q493 702 454.50 669Q416 636 360 636M360 718Q377 718 389 729.50Q401 741 401 759Q401 778 389 789Q377 800 360 800Q343 800 331 789Q319 778 319 759Q319 741 329.50 729.50Q340 718 360 718Z"  horiz-adv-x="726" vert-adv-y="1000"  />

      
      <glyph glyph-name="unic6" unicode="&#xc6;" d="M898 0L473 0L473 134L260 134L211 0L-5 0L302 714L898 714L898 559L667 559L667 447L881 447L881 292L667 292L667 157L898 157L898 0M319 294L473 294L473 551L419 551L319 294Z"  horiz-adv-x="946" vert-adv-y="1000"  />

      
      <glyph glyph-name="unic7" unicode="&#xc7;" d="M395 566Q327 566 288 510Q249 454 249 354Q249 253 288 200.50Q327 148 406 148Q453 148 497.50 161Q542 174 587 193L587 30Q540 9 490.50-0.50Q441-10 385-10Q269-10 195 36Q121 82 86 164.50Q51 247 51 355Q51 463 91 546Q131 629 208.50 676.50Q286 724 397 724Q449 724 506 712Q563 700 618 674L559 522Q520 541 480 553.50Q440 566 395 566M494-123Q494-176 457.50-208Q421-240 360-240Q326-240 298-235Q270-230 252-223L252-129Q269-134 285-137Q301-140 317-140Q357-140 357-112Q357-95 340.50-85Q324-75 286-68L316 0L411 0L402-30Q422-34 443.50-44Q465-54 479.50-72.50Q494-91 494-123Z"  horiz-adv-x="649" vert-adv-y="1000"  />

      
      <glyph glyph-name="unic8" unicode="&#xc8;" d="M501 0L77 0L77 714L501 714L501 559L270 559L270 447L484 447L484 292L270 292L270 157L501 157L501 0M288 927Q305 905 328.50 878Q352 851 376 825.50Q400 800 416 781L416 767L289 767Q269 780 240.50 799.50Q212 819 181.50 840.50Q151 862 123.50 882.50Q96 903 78 917L78 927L288 927Z"  horiz-adv-x="549" vert-adv-y="1000"  />

      
      <glyph glyph-name="unic9" unicode="&#xc9;" d="M501 0L77 0L77 714L501 714L501 559L270 559L270 447L484 447L484 292L270 292L270 157L501 157L501 0M527 917Q509 903 482 882.50Q455 862 424 840.50Q393 819 364.50 799.50Q336 780 316 767L189 767L189 781Q206 800 230 825.50Q254 851 278 878Q302 905 318 927L527 927L527 917Z"  horiz-adv-x="549" vert-adv-y="1000"  />

      
      <glyph glyph-name="unica" unicode="&#xca;" d="M501 0L77 0L77 714L501 714L501 559L270 559L270 447L484 447L484 292L270 292L270 157L501 157L501 0M387 927Q403 904 425.50 876.50Q448 849 471.50 823.50Q495 798 512 781L512 767L388 767Q362 782 339 800Q316 818 290 840Q264 818 242.50 801Q221 784 195 767L69 767L69 781Q88 799 111.50 824.50Q135 850 157.50 877Q180 904 195 927L387 927Z"  horiz-adv-x="549" vert-adv-y="1000"  />

      
      <glyph glyph-name="unicb" unicode="&#xcb;" d="M501 0L77 0L77 714L501 714L501 559L270 559L270 447L484 447L484 292L270 292L270 157L501 157L501 0M88 851Q88 891 112 909.50Q136 928 171 928Q205 928 230 909.50Q255 891 255 851Q255 812 230 793.50Q205 775 171 775Q136 775 112 793.50Q88 812 88 851M322 851Q322 891 346 909.50Q370 928 406 928Q440 928 465 909.50Q490 891 490 851Q490 812 465 793.50Q440 775 406 775Q370 775 346 793.50Q322 812 322 851Z"  horiz-adv-x="549" vert-adv-y="1000"  />

      
      <glyph glyph-name="unicc" unicode="&#xcc;" d="M406 0L34 0L34 110L123 144L123 571L34 604L34 714L406 714L406 604L317 571L317 144L406 110L406 0M219 927Q236 905 259.50 878Q283 851 307 825.50Q331 800 347 781L347 767L220 767Q200 780 171.50 799.50Q143 819 112.50 840.50Q82 862 54.50 882.50Q27 903 9 917L9 927L219 927Z"  horiz-adv-x="440" vert-adv-y="1000"  />

      
      <glyph glyph-name="unicd" unicode="&#xcd;" d="M406 0L34 0L34 110L123 144L123 571L34 604L34 714L406 714L406 604L317 571L317 144L406 110L406 0M458 917Q440 903 413 882.50Q386 862 355 840.50Q324 819 295.50 799.50Q267 780 247 767L120 767L120 781Q137 800 161 825.50Q185 851 209 878Q233 905 249 927L458 927L458 917Z"  horiz-adv-x="440" vert-adv-y="1000"  />

      
      <glyph glyph-name="unice" unicode="&#xce;" d="M406 0L34 0L34 110L123 144L123 571L34 604L34 714L406 714L406 604L317 571L317 144L406 110L406 0M318 927Q334 904 356.50 876.50Q379 849 402.50 823.50Q426 798 443 781L443 767L319 767Q293 782 270 800Q247 818 221 840Q195 818 173.50 801Q152 784 126 767L0 767L0 781Q19 799 42.50 824.50Q66 850 88.50 877Q111 904 126 927L318 927Z"  horiz-adv-x="440" vert-adv-y="1000"  />

      
      <glyph glyph-name="unicf" unicode="&#xcf;" d="M406 0L34 0L34 110L123 144L123 571L34 604L34 714L406 714L406 604L317 571L317 144L406 110L406 0M19 851Q19 891 43 909.50Q67 928 102 928Q136 928 161 909.50Q186 891 186 851Q186 812 161 793.50Q136 775 102 775Q67 775 43 793.50Q19 812 19 851M253 851Q253 891 277 909.50Q301 928 337 928Q371 928 396 909.50Q421 891 421 851Q421 812 396 793.50Q371 775 337 775Q301 775 277 793.50Q253 812 253 851Z"  horiz-adv-x="440" vert-adv-y="1000"  />

      
      <glyph glyph-name="unid0" unicode="&#xd0;" d="M324 714Q497 714 590 626Q683 538 683 372Q683 248 636.50 165Q590 82 506 41Q422 0 308 0L77 0L77 275L15 275L15 431L77 431L77 714L324 714M326 558L270 558L270 431L373 431L373 275L270 275L270 158L313 158Q401 158 442 209Q483 260 483 365Q483 558 326 558Z"  horiz-adv-x="734" vert-adv-y="1000"  />

      
      <glyph glyph-name="unid1" unicode="&#xd1;" d="M757 0L504 0L243 503L239 503Q241 480 243 447.50Q245 415 246.50 382Q248 349 248 322L248 0L77 0L77 714L329 714L589 218L592 218Q591 241 589 272Q587 303 586 335Q585 367 585 391L585 714L757 714L757 0M210 765Q216 857 247.50 894.50Q279 932 333 932Q358 932 386.50 920.50Q415 909 443.50 897Q472 885 497 885Q506 885 516.50 893.50Q527 902 532 933L621 933Q615 843 582 804.50Q549 766 501 766Q472 766 442.50 778Q413 790 385.50 801.50Q358 813 333 813Q324 813 314 805Q304 797 298 765L210 765Z"  horiz-adv-x="834" vert-adv-y="1000"  />

      
      <glyph glyph-name="unid2" unicode="&#xd2;" d="M745 358Q745 247 709.50 164.50Q674 82 597.50 36Q521-10 398-10Q278-10 201 36Q124 82 87.50 165Q51 248 51 359Q51 470 88 552.50Q125 635 202 680Q279 725 399 725Q521 725 597.50 679.50Q674 634 709.50 551.50Q745 469 745 358M254 358Q254 261 287.50 206Q321 151 398 151Q478 151 510 206Q542 261 542 358Q542 455 510 511Q478 567 399 567Q320 567 287 511Q254 455 254 358M398 927Q415 905 438.50 878Q462 851 486 825.50Q510 800 526 781L526 767L399 767Q379 780 350.50 799.50Q322 819 291.50 840.50Q261 862 233.50 882.50Q206 903 188 917L188 927L398 927Z"  horiz-adv-x="797" vert-adv-y="1000"  />

      
      <glyph glyph-name="unid3" unicode="&#xd3;" d="M745 358Q745 247 709.50 164.50Q674 82 597.50 36Q521-10 398-10Q278-10 201 36Q124 82 87.50 165Q51 248 51 359Q51 470 88 552.50Q125 635 202 680Q279 725 399 725Q521 725 597.50 679.50Q674 634 709.50 551.50Q745 469 745 358M254 358Q254 261 287.50 206Q321 151 398 151Q478 151 510 206Q542 261 542 358Q542 455 510 511Q478 567 399 567Q320 567 287 511Q254 455 254 358M637 917Q619 903 592 882.50Q565 862 534 840.50Q503 819 474.50 799.50Q446 780 426 767L299 767L299 781Q316 800 340 825.50Q364 851 388 878Q412 905 428 927L637 927L637 917Z"  horiz-adv-x="797" vert-adv-y="1000"  />

      
      <glyph glyph-name="unid4" unicode="&#xd4;" d="M745 358Q745 247 709.50 164.50Q674 82 597.50 36Q521-10 398-10Q278-10 201 36Q124 82 87.50 165Q51 248 51 359Q51 470 88 552.50Q125 635 202 680Q279 725 399 725Q521 725 597.50 679.50Q674 634 709.50 551.50Q745 469 745 358M254 358Q254 261 287.50 206Q321 151 398 151Q478 151 510 206Q542 261 542 358Q542 455 510 511Q478 567 399 567Q320 567 287 511Q254 455 254 358M497 927Q513 904 535.50 876.50Q558 849 581.50 823.50Q605 798 622 781L622 767L498 767Q472 782 449 800Q426 818 400 840Q374 818 352.50 801Q331 784 305 767L179 767L179 781Q198 799 221.50 824.50Q245 850 267.50 877Q290 904 305 927L497 927Z"  horiz-adv-x="797" vert-adv-y="1000"  />

      
      <glyph glyph-name="unid5" unicode="&#xd5;" d="M745 358Q745 247 709.50 164.50Q674 82 597.50 36Q521-10 398-10Q278-10 201 36Q124 82 87.50 165Q51 248 51 359Q51 470 88 552.50Q125 635 202 680Q279 725 399 725Q521 725 597.50 679.50Q674 634 709.50 551.50Q745 469 745 358M254 358Q254 261 287.50 206Q321 151 398 151Q478 151 510 206Q542 261 542 358Q542 455 510 511Q478 567 399 567Q320 567 287 511Q254 455 254 358M192 765Q198 857 229.50 894.50Q261 932 315 932Q340 932 368.50 920.50Q397 909 425.50 897Q454 885 479 885Q488 885 498.50 893.50Q509 902 514 933L603 933Q597 843 564 804.50Q531 766 483 766Q454 766 424.50 778Q395 790 367.50 801.50Q340 813 315 813Q306 813 296 805Q286 797 280 765L192 765Z"  horiz-adv-x="797" vert-adv-y="1000"  />

      
      <glyph glyph-name="unid6" unicode="&#xd6;" d="M745 358Q745 247 709.50 164.50Q674 82 597.50 36Q521-10 398-10Q278-10 201 36Q124 82 87.50 165Q51 248 51 359Q51 470 88 552.50Q125 635 202 680Q279 725 399 725Q521 725 597.50 679.50Q674 634 709.50 551.50Q745 469 745 358M254 358Q254 261 287.50 206Q321 151 398 151Q478 151 510 206Q542 261 542 358Q542 455 510 511Q478 567 399 567Q320 567 287 511Q254 455 254 358M198 851Q198 891 222 909.50Q246 928 281 928Q315 928 340 909.50Q365 891 365 851Q365 812 340 793.50Q315 775 281 775Q246 775 222 793.50Q198 812 198 851M432 851Q432 891 456 909.50Q480 928 516 928Q550 928 575 909.50Q600 891 600 851Q600 812 575 793.50Q550 775 516 775Q480 775 456 793.50Q432 812 432 851Z"  horiz-adv-x="797" vert-adv-y="1000"  />

      
      <glyph glyph-name="unid7" unicode="&#xd7;" d="M424 576L516 487L382 353L514 220L424 130L290 262L158 131L70 222L199 353L69 484L158 576L290 446L424 576Z"  horiz-adv-x="586" vert-adv-y="1000"  />

      
      <glyph glyph-name="unid8" unicode="&#xd8;" d="M745 358Q745 247 709.50 164.50Q674 82 597.50 36Q521-10 398-10Q313-10 248 11L207-53L113 8L154 69Q101 118 76 191.50Q51 265 51 359Q51 470 88 552.50Q125 635 202 680Q279 725 399 725Q494 725 560 698L597 756L690 700L650 639Q700 591 722.50 519Q745 447 745 358M254 358Q254 324 257 294.50Q260 265 268 241L465 553Q451 559 434 563Q417 567 399 567Q320 567 287 511Q254 455 254 358M542 358Q542 419 533 461L341 158Q353 155 367.50 153Q382 151 398 151Q478 151 510 206Q542 261 542 358Z"  horiz-adv-x="797" vert-adv-y="1000"  />

      
      <glyph glyph-name="unid9" unicode="&#xd9;" d="M684 284Q684 149 607.50 69.50Q531-10 376-10Q228-10 150.50 65.50Q73 141 73 280L73 714L267 714L267 295Q267 219 295.50 185Q324 151 379 151Q438 151 464.50 185.50Q491 220 491 296L491 714L684 714L684 284M378 927Q395 905 418.50 878Q442 851 466 825.50Q490 800 506 781L506 767L379 767Q359 780 330.50 799.50Q302 819 271.50 840.50Q241 862 213.50 882.50Q186 903 168 917L168 927L378 927Z"  horiz-adv-x="757" vert-adv-y="1000"  />

      
      <glyph glyph-name="unida" unicode="&#xda;" d="M684 284Q684 149 607.50 69.50Q531-10 376-10Q228-10 150.50 65.50Q73 141 73 280L73 714L267 714L267 295Q267 219 295.50 185Q324 151 379 151Q438 151 464.50 185.50Q491 220 491 296L491 714L684 714L684 284M617 917Q599 903 572 882.50Q545 862 514 840.50Q483 819 454.50 799.50Q426 780 406 767L279 767L279 781Q296 800 320 825.50Q344 851 368 878Q392 905 408 927L617 927L617 917Z"  horiz-adv-x="757" vert-adv-y="1000"  />

      
      <glyph glyph-name="unidb" unicode="&#xdb;" d="M684 284Q684 149 607.50 69.50Q531-10 376-10Q228-10 150.50 65.50Q73 141 73 280L73 714L267 714L267 295Q267 219 295.50 185Q324 151 379 151Q438 151 464.50 185.50Q491 220 491 296L491 714L684 714L684 284M477 927Q493 904 515.50 876.50Q538 849 561.50 823.50Q585 798 602 781L602 767L478 767Q452 782 429 800Q406 818 380 840Q354 818 332.50 801Q311 784 285 767L159 767L159 781Q178 799 201.50 824.50Q225 850 247.50 877Q270 904 285 927L477 927Z"  horiz-adv-x="757" vert-adv-y="1000"  />

      
      <glyph glyph-name="unidc" unicode="&#xdc;" d="M684 284Q684 149 607.50 69.50Q531-10 376-10Q228-10 150.50 65.50Q73 141 73 280L73 714L267 714L267 295Q267 219 295.50 185Q324 151 379 151Q438 151 464.50 185.50Q491 220 491 296L491 714L684 714L684 284M178 851Q178 891 202 909.50Q226 928 261 928Q295 928 320 909.50Q345 891 345 851Q345 812 320 793.50Q295 775 261 775Q226 775 202 793.50Q178 812 178 851M412 851Q412 891 436 909.50Q460 928 496 928Q530 928 555 909.50Q580 891 580 851Q580 812 555 793.50Q530 775 496 775Q460 775 436 793.50Q412 812 412 851Z"  horiz-adv-x="757" vert-adv-y="1000"  />

      
      <glyph glyph-name="unidd" unicode="&#xdd;" d="M332 449L455 714L664 714L429 279L429 0L235 0L235 273L0 714L210 714L332 449M570 917Q552 903 525 882.50Q498 862 467 840.50Q436 819 407.50 799.50Q379 780 359 767L232 767L232 781Q249 800 273 825.50Q297 851 321 878Q345 905 361 927L570 927L570 917Z"  horiz-adv-x="664" vert-adv-y="1000"  />

      
      <glyph glyph-name="unide" unicode="&#xde;" d="M595 383Q595 334 581 289.50Q567 245 535.50 209.50Q504 174 452 153.50Q400 133 324 133L270 133L270 0L77 0L77 714L270 714L270 610L324 610Q460 610 527.50 551Q595 492 595 383M305 290Q343 290 371.50 311.50Q400 333 400 382Q400 416 381 435Q362 454 320 454L270 454L270 290L305 290Z"  horiz-adv-x="627" vert-adv-y="1000"  />

      
      <glyph glyph-name="unidf" unicode="&#xdf;" d="M654 581Q654 539 634 508.50Q614 478 588.50 457Q563 436 543 421.50Q523 407 523 396Q523 377 549 364.50Q575 352 624 320Q674 289 697.50 255Q721 221 721 163Q721 79 664.50 34.50Q608-10 500-10Q433-10 392-3.50Q351 3 319 19L319 161Q336 151 360 142Q384 133 409.50 127.50Q435 122 455 122Q483 122 502.50 133Q522 144 522 164Q522 175 516.50 184.50Q511 194 491.50 207Q472 220 431 241Q370 273 346 301.50Q322 330 322 369Q322 400 335.50 421.50Q349 443 369.50 459.50Q390 476 410.50 490.50Q431 505 444.50 521.50Q458 538 458 561Q458 586 433.50 602.50Q409 619 365 619Q310 619 283.50 592.50Q257 566 257 517L257 0L66 0L66 537Q66 611 105 661.50Q144 712 211.50 738.50Q279 765 365 765Q449 765 514.50 744.50Q580 724 617 683.50Q654 643 654 581Z"  horiz-adv-x="750" vert-adv-y="1000"  />

      
      <glyph glyph-name="unie0" unicode="&#xe0;" d="M336 563Q441 563 500 511Q559 459 559 363L559 0L427 0L390 73L386 73Q363 44 338.50 25.50Q314 7 282-1.50Q250-10 204-10Q132-10 84 34Q36 78 36 169Q36 258 97.50 301Q159 344 276 349L368 352L368 360Q368 397 350 412.50Q332 428 301 428Q268 428 228 416.50Q188 405 147 387L92 513Q140 538 200.50 550.50Q261 563 336 563M325 245Q273 243 251.50 226.50Q230 210 230 180Q230 152 245 138.50Q260 125 285 125Q320 125 344.50 147Q369 169 369 204L369 247L325 245M311 766Q328 744 351.50 717Q375 690 399 664.50Q423 639 439 620L439 606L312 606Q292 619 263.50 638.50Q235 658 204.50 679.50Q174 701 146.50 721.50Q119 742 101 756L101 766L311 766Z"  horiz-adv-x="623" vert-adv-y="1000"  />

      
      <glyph glyph-name="unie1" unicode="&#xe1;" d="M336 563Q441 563 500 511Q559 459 559 363L559 0L427 0L390 73L386 73Q363 44 338.50 25.50Q314 7 282-1.50Q250-10 204-10Q132-10 84 34Q36 78 36 169Q36 258 97.50 301Q159 344 276 349L368 352L368 360Q368 397 350 412.50Q332 428 301 428Q268 428 228 416.50Q188 405 147 387L92 513Q140 538 200.50 550.50Q261 563 336 563M325 245Q273 243 251.50 226.50Q230 210 230 180Q230 152 245 138.50Q260 125 285 125Q320 125 344.50 147Q369 169 369 204L369 247L325 245M550 756Q532 742 505 721.50Q478 701 447 679.50Q416 658 387.50 638.50Q359 619 339 606L212 606L212 620Q229 639 253 664.50Q277 690 301 717Q325 744 341 766L550 766L550 756Z"  horiz-adv-x="623" vert-adv-y="1000"  />

      
      <glyph glyph-name="unie2" unicode="&#xe2;" d="M336 563Q441 563 500 511Q559 459 559 363L559 0L427 0L390 73L386 73Q363 44 338.50 25.50Q314 7 282-1.50Q250-10 204-10Q132-10 84 34Q36 78 36 169Q36 258 97.50 301Q159 344 276 349L368 352L368 360Q368 397 350 412.50Q332 428 301 428Q268 428 228 416.50Q188 405 147 387L92 513Q140 538 200.50 550.50Q261 563 336 563M325 245Q273 243 251.50 226.50Q230 210 230 180Q230 152 245 138.50Q260 125 285 125Q320 125 344.50 147Q369 169 369 204L369 247L325 245M410 766Q426 743 448.50 715.50Q471 688 494.50 662.50Q518 637 535 620L535 606L411 606Q385 621 362 639Q339 657 313 679Q287 657 265.50 640Q244 623 218 606L92 606L92 620Q111 638 134.50 663.50Q158 689 180.50 716Q203 743 218 766L410 766Z"  horiz-adv-x="623" vert-adv-y="1000"  />

      
      <glyph glyph-name="unie3" unicode="&#xe3;" d="M336 563Q441 563 500 511Q559 459 559 363L559 0L427 0L390 73L386 73Q363 44 338.50 25.50Q314 7 282-1.50Q250-10 204-10Q132-10 84 34Q36 78 36 169Q36 258 97.50 301Q159 344 276 349L368 352L368 360Q368 397 350 412.50Q332 428 301 428Q268 428 228 416.50Q188 405 147 387L92 513Q140 538 200.50 550.50Q261 563 336 563M325 245Q273 243 251.50 226.50Q230 210 230 180Q230 152 245 138.50Q260 125 285 125Q320 125 344.50 147Q369 169 369 204L369 247L325 245M105 604Q111 696 142.50 733.50Q174 771 228 771Q253 771 281.50 759.50Q310 748 338.50 736Q367 724 392 724Q401 724 411.50 732.50Q422 741 427 772L516 772Q510 682 477 643.50Q444 605 396 605Q367 605 337.50 617Q308 629 280.50 640.50Q253 652 228 652Q219 652 209 644Q199 636 193 604L105 604Z"  horiz-adv-x="623" vert-adv-y="1000"  />

      
      <glyph glyph-name="unie4" unicode="&#xe4;" d="M336 563Q441 563 500 511Q559 459 559 363L559 0L427 0L390 73L386 73Q363 44 338.50 25.50Q314 7 282-1.50Q250-10 204-10Q132-10 84 34Q36 78 36 169Q36 258 97.50 301Q159 344 276 349L368 352L368 360Q368 397 350 412.50Q332 428 301 428Q268 428 228 416.50Q188 405 147 387L92 513Q140 538 200.50 550.50Q261 563 336 563M325 245Q273 243 251.50 226.50Q230 210 230 180Q230 152 245 138.50Q260 125 285 125Q320 125 344.50 147Q369 169 369 204L369 247L325 245M111 690Q111 730 135 748.50Q159 767 194 767Q228 767 253 748.50Q278 730 278 690Q278 651 253 632.50Q228 614 194 614Q159 614 135 632.50Q111 651 111 690M345 690Q345 730 369 748.50Q393 767 429 767Q463 767 488 748.50Q513 730 513 690Q513 651 488 632.50Q463 614 429 614Q393 614 369 632.50Q345 651 345 690Z"  horiz-adv-x="623" vert-adv-y="1000"  />

      
      <glyph glyph-name="unie5" unicode="&#xe5;" d="M336 563Q441 563 500 511Q559 459 559 363L559 0L427 0L390 73L386 73Q363 44 338.50 25.50Q314 7 282-1.50Q250-10 204-10Q132-10 84 34Q36 78 36 169Q36 258 97.50 301Q159 344 276 349L368 352L368 360Q368 397 350 412.50Q332 428 301 428Q268 428 228 416.50Q188 405 147 387L92 513Q140 538 200.50 550.50Q261 563 336 563M325 245Q273 243 251.50 226.50Q230 210 230 180Q230 152 245 138.50Q260 125 285 125Q320 125 344.50 147Q369 169 369 204L369 247L325 245M312 604Q254 604 218.50 637Q183 670 183 727Q183 785 218.50 818Q254 851 312 851Q367 851 406 818Q445 785 445 728Q445 670 406.50 637Q368 604 312 604M312 686Q329 686 341 697.50Q353 709 353 727Q353 746 341 757Q329 768 312 768Q295 768 283 757Q271 746 271 727Q271 709 281.50 697.50Q292 686 312 686Z"  horiz-adv-x="623" vert-adv-y="1000"  />

      
      <glyph glyph-name="unie6" unicode="&#xe6;" d="M653 563Q723 563 777 535Q831 507 862 450.50Q893 394 893 309L893 225L553 225Q555 185 587 155.50Q619 126 680 126Q718 126 764.50 135Q811 144 858 168L858 31Q818 10 772 0Q726-10 655-10Q592-10 537.50 12.50Q483 35 445 83Q411 48 380.50 27.50Q350 7 311-1.50Q272-10 212-10Q166-10 126 9.50Q86 29 61 69.50Q36 110 36 172Q36 234 66.50 272Q97 310 151.50 328.50Q206 347 279 349L368 352L368 361Q368 401 348 414.50Q328 428 302 428Q269 428 228.50 417.50Q188 407 149 389L95 514Q142 539 199 551Q256 563 317 563Q414 563 481 517Q516 541 556 552Q596 563 653 563M642 433Q607 433 583.50 413.50Q560 394 556 345L722 345Q721 381 700.50 407Q680 433 642 433M328 245Q272 244 251.50 225Q231 206 231 174Q231 147 246 136Q261 125 286 125Q320 125 344.50 147Q369 169 369 204L369 247L328 245Z"  horiz-adv-x="935" vert-adv-y="1000"  />

      
      <glyph glyph-name="unie7" unicode="&#xe7;" d="M318-10Q192-10 117 58Q42 126 42 274Q42 375 80 438.50Q118 502 183.50 532.50Q249 563 333 563Q384 563 429.50 552Q475 541 514 521L458 380Q424 395 394.50 404Q365 413 333 413Q290 413 263 379Q236 345 236 275Q236 203 263.50 172.50Q291 142 334 142Q375 142 416.50 155Q458 168 495 191L495 39Q461 17 418 3.50Q375-10 318-10M430-123Q430-176 393.50-208Q357-240 296-240Q262-240 234-235Q206-230 188-223L188-129Q205-134 221-137Q237-140 253-140Q293-140 293-112Q293-95 276.50-85Q260-75 222-68L252 0L347 0L338-30Q358-34 379.50-44Q401-54 415.50-72.50Q430-91 430-123Z"  horiz-adv-x="539" vert-adv-y="1000"  />

      
      <glyph glyph-name="unie8" unicode="&#xe8;" d="M315 563Q436 563 506 500Q576 437 576 310L576 225L235 225Q237 182 267.50 154Q298 126 356 126Q408 126 451 136Q494 146 540 168L540 31Q500 10 452.50 0Q405-10 333-10Q249-10 183.50 19.50Q118 49 80 112Q42 175 42 273Q42 373 76.50 437Q111 501 172.50 532Q234 563 315 563M322 433Q288 433 265.50 412Q243 391 239 345L403 345Q402 382 381.50 407.50Q361 433 322 433M308 766Q325 744 348.50 717Q372 690 396 664.50Q420 639 436 620L436 606L309 606Q289 619 260.50 638.50Q232 658 201.50 679.50Q171 701 143.50 721.50Q116 742 98 756L98 766L308 766Z"  horiz-adv-x="618" vert-adv-y="1000"  />

      
      <glyph glyph-name="unie9" unicode="&#xe9;" d="M315 563Q436 563 506 500Q576 437 576 310L576 225L235 225Q237 182 267.50 154Q298 126 356 126Q408 126 451 136Q494 146 540 168L540 31Q500 10 452.50 0Q405-10 333-10Q249-10 183.50 19.50Q118 49 80 112Q42 175 42 273Q42 373 76.50 437Q111 501 172.50 532Q234 563 315 563M322 433Q288 433 265.50 412Q243 391 239 345L403 345Q402 382 381.50 407.50Q361 433 322 433M547 756Q529 742 502 721.50Q475 701 444 679.50Q413 658 384.50 638.50Q356 619 336 606L209 606L209 620Q226 639 250 664.50Q274 690 298 717Q322 744 338 766L547 766L547 756Z"  horiz-adv-x="618" vert-adv-y="1000"  />

      
      <glyph glyph-name="uniea" unicode="&#xea;" d="M315 563Q436 563 506 500Q576 437 576 310L576 225L235 225Q237 182 267.50 154Q298 126 356 126Q408 126 451 136Q494 146 540 168L540 31Q500 10 452.50 0Q405-10 333-10Q249-10 183.50 19.50Q118 49 80 112Q42 175 42 273Q42 373 76.50 437Q111 501 172.50 532Q234 563 315 563M322 433Q288 433 265.50 412Q243 391 239 345L403 345Q402 382 381.50 407.50Q361 433 322 433M407 766Q423 743 445.50 715.50Q468 688 491.50 662.50Q515 637 532 620L532 606L408 606Q382 621 359 639Q336 657 310 679Q284 657 262.50 640Q241 623 215 606L89 606L89 620Q108 638 131.50 663.50Q155 689 177.50 716Q200 743 215 766L407 766Z"  horiz-adv-x="618" vert-adv-y="1000"  />

      
      <glyph glyph-name="unieb" unicode="&#xeb;" d="M315 563Q436 563 506 500Q576 437 576 310L576 225L235 225Q237 182 267.50 154Q298 126 356 126Q408 126 451 136Q494 146 540 168L540 31Q500 10 452.50 0Q405-10 333-10Q249-10 183.50 19.50Q118 49 80 112Q42 175 42 273Q42 373 76.50 437Q111 501 172.50 532Q234 563 315 563M322 433Q288 433 265.50 412Q243 391 239 345L403 345Q402 382 381.50 407.50Q361 433 322 433M108 690Q108 730 132 748.50Q156 767 191 767Q225 767 250 748.50Q275 730 275 690Q275 651 250 632.50Q225 614 191 614Q156 614 132 632.50Q108 651 108 690M342 690Q342 730 366 748.50Q390 767 426 767Q460 767 485 748.50Q510 730 510 690Q510 651 485 632.50Q460 614 426 614Q390 614 366 632.50Q342 651 342 690Z"  horiz-adv-x="618" vert-adv-y="1000"  />

      
      <glyph glyph-name="uniec" unicode="&#xec;" d="M258 0L67 0L67 553L258 553L258 0M162 766Q179 744 202.50 717Q226 690 250 664.50Q274 639 290 620L290 606L163 606Q143 619 114.50 638.50Q86 658 55.50 679.50Q25 701-2.50 721.50Q-30 742-48 756L-48 766L162 766Z"  horiz-adv-x="325" vert-adv-y="1000"  />

      
      <glyph glyph-name="unied" unicode="&#xed;" d="M258 0L67 0L67 553L258 553L258 0M401 756Q383 742 356 721.50Q329 701 298 679.50Q267 658 238.50 638.50Q210 619 190 606L63 606L63 620Q80 639 104 664.50Q128 690 152 717Q176 744 192 766L401 766L401 756Z"  horiz-adv-x="325" vert-adv-y="1000"  />

      
      <glyph glyph-name="uniee" unicode="&#xee;" d="M258 0L67 0L67 553L258 553L258 0M261 766Q277 743 299.50 715.50Q322 688 345.50 662.50Q369 637 386 620L386 606L262 606Q236 621 213 639Q190 657 164 679Q138 657 116.50 640Q95 623 69 606L-57 606L-57 620Q-38 638-14.50 663.50Q9 689 31.50 716Q54 743 69 766L261 766Z"  horiz-adv-x="325" vert-adv-y="1000"  />

      
      <glyph glyph-name="unief" unicode="&#xef;" d="M258 0L67 0L67 553L258 553L258 0M-38 690Q-38 730-14 748.50Q10 767 45 767Q79 767 104 748.50Q129 730 129 690Q129 651 104 632.50Q79 614 45 614Q10 614-14 632.50Q-38 651-38 690M196 690Q196 730 220 748.50Q244 767 280 767Q314 767 339 748.50Q364 730 364 690Q364 651 339 632.50Q314 614 280 614Q244 614 220 632.50Q196 651 196 690Z"  horiz-adv-x="325" vert-adv-y="1000"  />

      
      <glyph glyph-name="unif0" unicode="&#xf0;" d="M234 768Q273 752 305 736Q337 720 364 702L466 769L522 680L451 633Q522 564 558 482Q594 400 594 283Q594 193 560 127Q526 61 464 25.50Q402-10 317-10Q238-10 176 19Q114 48 78.50 104.50Q43 161 43 243Q43 326 74 382Q105 438 158 466.50Q211 495 277 495Q326 495 354.50 484.50Q383 474 396 454L400 456Q386 483 370 508Q354 533 330 557L241 499L184 589L254 634Q239 644 219.50 656Q200 668 181 679L234 768M319 358Q274 358 256.50 330.50Q239 303 239 244Q239 191 257 158.50Q275 126 319 126Q363 126 381 161Q399 196 399 266Q399 301 379.50 329.50Q360 358 319 358Z"  horiz-adv-x="641" vert-adv-y="1000"  />

      
      <glyph glyph-name="unif1" unicode="&#xf1;" d="M412 563Q498 563 552 515Q606 467 606 360L606 0L415 0L415 302Q415 357 399 385Q383 413 348 413Q294 413 275.50 369Q257 325 257 242L257 0L66 0L66 553L210 553L236 480L243 480Q269 519 311.50 541Q354 563 412 563M128 604Q134 696 165.50 733.50Q197 771 251 771Q276 771 304.50 759.50Q333 748 361.50 736Q390 724 415 724Q424 724 434.50 732.50Q445 741 450 772L539 772Q533 682 500 643.50Q467 605 419 605Q390 605 360.50 617Q331 629 303.50 640.50Q276 652 251 652Q242 652 232 644Q222 636 216 604L128 604Z"  horiz-adv-x="670" vert-adv-y="1000"  />

      
      <glyph glyph-name="unif2" unicode="&#xf2;" d="M594 278Q594 139 520 64.50Q446-10 317-10Q237-10 175 23.50Q113 57 77.50 121.50Q42 186 42 278Q42 415 116 489Q190 563 320 563Q400 563 461.50 530Q523 497 558.50 433.50Q594 370 594 278M236 278Q236 207 255 169.50Q274 132 319 132Q363 132 381.50 169.50Q400 207 400 278Q400 349 381.50 385Q363 421 318 421Q275 421 255.50 385Q236 349 236 278M318 766Q335 744 358.50 717Q382 690 406 664.50Q430 639 446 620L446 606L319 606Q299 619 270.50 638.50Q242 658 211.50 679.50Q181 701 153.50 721.50Q126 742 108 756L108 766L318 766Z"  horiz-adv-x="637" vert-adv-y="1000"  />

      
      <glyph glyph-name="unif3" unicode="&#xf3;" d="M594 278Q594 139 520 64.50Q446-10 317-10Q237-10 175 23.50Q113 57 77.50 121.50Q42 186 42 278Q42 415 116 489Q190 563 320 563Q400 563 461.50 530Q523 497 558.50 433.50Q594 370 594 278M236 278Q236 207 255 169.50Q274 132 319 132Q363 132 381.50 169.50Q400 207 400 278Q400 349 381.50 385Q363 421 318 421Q275 421 255.50 385Q236 349 236 278M557 756Q539 742 512 721.50Q485 701 454 679.50Q423 658 394.50 638.50Q366 619 346 606L219 606L219 620Q236 639 260 664.50Q284 690 308 717Q332 744 348 766L557 766L557 756Z"  horiz-adv-x="637" vert-adv-y="1000"  />

      
      <glyph glyph-name="unif4" unicode="&#xf4;" d="M594 278Q594 139 520 64.50Q446-10 317-10Q237-10 175 23.50Q113 57 77.50 121.50Q42 186 42 278Q42 415 116 489Q190 563 320 563Q400 563 461.50 530Q523 497 558.50 433.50Q594 370 594 278M236 278Q236 207 255 169.50Q274 132 319 132Q363 132 381.50 169.50Q400 207 400 278Q400 349 381.50 385Q363 421 318 421Q275 421 255.50 385Q236 349 236 278M417 766Q433 743 455.50 715.50Q478 688 501.50 662.50Q525 637 542 620L542 606L418 606Q392 621 369 639Q346 657 320 679Q294 657 272.50 640Q251 623 225 606L99 606L99 620Q118 638 141.50 663.50Q165 689 187.50 716Q210 743 225 766L417 766Z"  horiz-adv-x="637" vert-adv-y="1000"  />

      
      <glyph glyph-name="unif5" unicode="&#xf5;" d="M594 278Q594 139 520 64.50Q446-10 317-10Q237-10 175 23.50Q113 57 77.50 121.50Q42 186 42 278Q42 415 116 489Q190 563 320 563Q400 563 461.50 530Q523 497 558.50 433.50Q594 370 594 278M236 278Q236 207 255 169.50Q274 132 319 132Q363 132 381.50 169.50Q400 207 400 278Q400 349 381.50 385Q363 421 318 421Q275 421 255.50 385Q236 349 236 278M112 604Q118 696 149.50 733.50Q181 771 235 771Q260 771 288.50 759.50Q317 748 345.50 736Q374 724 399 724Q408 724 418.50 732.50Q429 741 434 772L523 772Q517 682 484 643.50Q451 605 403 605Q374 605 344.50 617Q315 629 287.50 640.50Q260 652 235 652Q226 652 216 644Q206 636 200 604L112 604Z"  horiz-adv-x="637" vert-adv-y="1000"  />

      
      <glyph glyph-name="unif6" unicode="&#xf6;" d="M594 278Q594 139 520 64.50Q446-10 317-10Q237-10 175 23.50Q113 57 77.50 121.50Q42 186 42 278Q42 415 116 489Q190 563 320 563Q400 563 461.50 530Q523 497 558.50 433.50Q594 370 594 278M236 278Q236 207 255 169.50Q274 132 319 132Q363 132 381.50 169.50Q400 207 400 278Q400 349 381.50 385Q363 421 318 421Q275 421 255.50 385Q236 349 236 278M118 690Q118 730 142 748.50Q166 767 201 767Q235 767 260 748.50Q285 730 285 690Q285 651 260 632.50Q235 614 201 614Q166 614 142 632.50Q118 651 118 690M352 690Q352 730 376 748.50Q400 767 436 767Q470 767 495 748.50Q520 730 520 690Q520 651 495 632.50Q470 614 436 614Q400 614 376 632.50Q352 651 352 690Z"  horiz-adv-x="637" vert-adv-y="1000"  />

      
      <glyph glyph-name="unif7" unicode="&#xf7;" d="M292 460Q261 460 238.50 480Q216 500 216 543Q216 590 238.50 608Q261 626 292 626Q322 626 345.50 608Q369 590 369 543Q369 500 345.50 480Q322 460 292 460M45 287L45 418L540 418L540 287L45 287M292 79Q261 79 238.50 99Q216 119 216 162Q216 209 238.50 227Q261 245 292 245Q322 245 345.50 227Q369 209 369 162Q369 119 345.50 99Q322 79 292 79Z"  horiz-adv-x="586" vert-adv-y="1000"  />

      
      <glyph glyph-name="unif8" unicode="&#xf8;" d="M622 278Q622 139 544.50 64.50Q467-10 331-10Q272-10 219 7L178-57L95-5L134 55Q91 92 66.50 148Q42 204 42 278Q42 415 120 489Q198 563 334 563Q365 563 394 558Q423 553 448 544L483 598L565 547L532 496Q574 460 598 405Q622 350 622 278M225 278Q225 257 226 239.50Q227 222 231 206L372 425Q354 431 332 431Q273 431 249 392.50Q225 354 225 278M439 278Q439 296 438 312.50Q437 329 434 342L296 126Q311 122 333 122Q394 122 416.50 162Q439 202 439 278Z"  horiz-adv-x="665" vert-adv-y="1000"  />

      
      <glyph glyph-name="unif9" unicode="&#xf9;" d="M604 553L604 0L460 0L436 69L425 69Q399 27 354 8.50Q309-10 258-10Q204-10 160 11Q116 32 90.50 77Q65 122 65 193L65 553L256 553L256 251Q256 197 271.50 169Q287 141 322 141Q376 141 394.50 185Q413 229 413 311L413 553L604 553M334 766Q351 744 374.50 717Q398 690 422 664.50Q446 639 462 620L462 606L335 606Q315 619 286.50 638.50Q258 658 227.50 679.50Q197 701 169.50 721.50Q142 742 124 756L124 766L334 766Z"  horiz-adv-x="670" vert-adv-y="1000"  />

      
      <glyph glyph-name="unifa" unicode="&#xfa;" d="M604 553L604 0L460 0L436 69L425 69Q399 27 354 8.50Q309-10 258-10Q204-10 160 11Q116 32 90.50 77Q65 122 65 193L65 553L256 553L256 251Q256 197 271.50 169Q287 141 322 141Q376 141 394.50 185Q413 229 413 311L413 553L604 553M573 756Q555 742 528 721.50Q501 701 470 679.50Q439 658 410.50 638.50Q382 619 362 606L235 606L235 620Q252 639 276 664.50Q300 690 324 717Q348 744 364 766L573 766L573 756Z"  horiz-adv-x="670" vert-adv-y="1000"  />

      
      <glyph glyph-name="unifb" unicode="&#xfb;" d="M604 553L604 0L460 0L436 69L425 69Q399 27 354 8.50Q309-10 258-10Q204-10 160 11Q116 32 90.50 77Q65 122 65 193L65 553L256 553L256 251Q256 197 271.50 169Q287 141 322 141Q376 141 394.50 185Q413 229 413 311L413 553L604 553M433 766Q449 743 471.50 715.50Q494 688 517.50 662.50Q541 637 558 620L558 606L434 606Q408 621 385 639Q362 657 336 679Q310 657 288.50 640Q267 623 241 606L115 606L115 620Q134 638 157.50 663.50Q181 689 203.50 716Q226 743 241 766L433 766Z"  horiz-adv-x="670" vert-adv-y="1000"  />

      
      <glyph glyph-name="unifc" unicode="&#xfc;" d="M604 553L604 0L460 0L436 69L425 69Q399 27 354 8.50Q309-10 258-10Q204-10 160 11Q116 32 90.50 77Q65 122 65 193L65 553L256 553L256 251Q256 197 271.50 169Q287 141 322 141Q376 141 394.50 185Q413 229 413 311L413 553L604 553M134 690Q134 730 158 748.50Q182 767 217 767Q251 767 276 748.50Q301 730 301 690Q301 651 276 632.50Q251 614 217 614Q182 614 158 632.50Q134 651 134 690M368 690Q368 730 392 748.50Q416 767 452 767Q486 767 511 748.50Q536 730 536 690Q536 651 511 632.50Q486 614 452 614Q416 614 392 632.50Q368 651 368 690Z"  horiz-adv-x="670" vert-adv-y="1000"  />

      
      <glyph glyph-name="unifd" unicode="&#xfd;" d="M-1 553L200 553L294 236Q297 226 299.50 209Q302 192 303 176L307 176Q309 196 312.50 210.50Q316 225 319 235L415 553L610 553L391-35Q366-102 332.50-148Q299-194 250-217Q201-240 128-240Q102-240 83-237.50Q64-235 50-232L50-82Q61-84 76.50-86Q92-88 109-88Q156-88 178.50-60.50Q201-33 215 3L217 8L-1 553M543 756Q525 742 498 721.50Q471 701 440 679.50Q409 658 380.50 638.50Q352 619 332 606L205 606L205 620Q222 639 246 664.50Q270 690 294 717Q318 744 334 766L543 766L543 756Z"  horiz-adv-x="610" vert-adv-y="1000"  />

      
      <glyph glyph-name="unife" unicode="&#xfe;" d="M600 278Q600 184 573.50 119.50Q547 55 501.50 22.50Q456-10 397-10Q345-10 311.50 9.50Q278 29 257 53L250 53Q253 38 255 16.50Q257-5 257-21L257-240L66-240L66 760L257 760L257 592Q257 552 254 524.50Q251 497 248 482L257 482Q276 516 312.50 539.50Q349 563 404 563Q490 563 545 490.50Q600 418 600 278M406 280Q406 345 390 379Q374 413 333 413Q292 413 275.50 383Q259 353 257 293L257 279Q257 213 274.50 178.50Q292 144 336 144Q375 144 390.50 178.50Q406 213 406 280Z"  horiz-adv-x="643" vert-adv-y="1000"  />

      
      <glyph glyph-name="uniff" unicode="&#xff;" d="M-1 553L200 553L294 236Q297 226 299.50 209Q302 192 303 176L307 176Q309 196 312.50 210.50Q316 225 319 235L415 553L610 553L391-35Q366-102 332.50-148Q299-194 250-217Q201-240 128-240Q102-240 83-237.50Q64-235 50-232L50-82Q61-84 76.50-86Q92-88 109-88Q156-88 178.50-60.50Q201-33 215 3L217 8L-1 553M104 690Q104 730 128 748.50Q152 767 187 767Q221 767 246 748.50Q271 730 271 690Q271 651 246 632.50Q221 614 187 614Q152 614 128 632.50Q104 651 104 690M338 690Q338 730 362 748.50Q386 767 422 767Q456 767 481 748.50Q506 730 506 690Q506 651 481 632.50Q456 614 422 614Q386 614 362 632.50Q338 651 338 690Z"  horiz-adv-x="610" vert-adv-y="1000"  />

      
      <glyph glyph-name="uni0100" unicode="&#x0100;" d="M515 0L480 134L248 134L212 0L0 0L233 717L490 717L726 0L515 0M409 409Q404 428 395 463.50Q386 499 377 537Q368 575 363 599Q359 575 350.50 539Q342 503 333.50 468Q325 433 319 409L288 292L440 292L409 409M544 882L544 767L189 767L189 882L544 882Z"  horiz-adv-x="726" vert-adv-y="1000"  />

      
      <glyph glyph-name="uni0101" unicode="&#x0101;" d="M336 563Q441 563 500 511Q559 459 559 363L559 0L427 0L390 73L386 73Q363 44 338.50 25.50Q314 7 282-1.50Q250-10 204-10Q132-10 84 34Q36 78 36 169Q36 258 97.50 301Q159 344 276 349L368 352L368 360Q368 397 350 412.50Q332 428 301 428Q268 428 228 416.50Q188 405 147 387L92 513Q140 538 200.50 550.50Q261 563 336 563M325 245Q273 243 251.50 226.50Q230 210 230 180Q230 152 245 138.50Q260 125 285 125Q320 125 344.50 147Q369 169 369 204L369 247L325 245M493 721L493 606L138 606L138 721L493 721Z"  horiz-adv-x="623" vert-adv-y="1000"  />

      
      <glyph glyph-name="uni0102" unicode="&#x0102;" d="M515 0L480 134L248 134L212 0L0 0L233 717L490 717L726 0L515 0M409 409Q404 428 395 463.50Q386 499 377 537Q368 575 363 599Q359 575 350.50 539Q342 503 333.50 468Q325 433 319 409L288 292L440 292L409 409M563 948Q558 866 506.50 816.50Q455 767 364 767Q269 767 220.50 815.50Q172 864 168 948L271 948Q282 906 302.50 895Q323 884 364 884Q396 884 421 896.50Q446 909 456 948L563 948Z"  horiz-adv-x="726" vert-adv-y="1000"  />

      
      <glyph glyph-name="uni0103" unicode="&#x0103;" d="M336 563Q441 563 500 511Q559 459 559 363L559 0L427 0L390 73L386 73Q363 44 338.50 25.50Q314 7 282-1.50Q250-10 204-10Q132-10 84 34Q36 78 36 169Q36 258 97.50 301Q159 344 276 349L368 352L368 360Q368 397 350 412.50Q332 428 301 428Q268 428 228 416.50Q188 405 147 387L92 513Q140 538 200.50 550.50Q261 563 336 563M325 245Q273 243 251.50 226.50Q230 210 230 180Q230 152 245 138.50Q260 125 285 125Q320 125 344.50 147Q369 169 369 204L369 247L325 245M512 787Q507 705 455.50 655.50Q404 606 313 606Q218 606 169.50 654.50Q121 703 117 787L220 787Q231 745 251.50 734Q272 723 313 723Q345 723 370 735.50Q395 748 405 787L512 787Z"  horiz-adv-x="623" vert-adv-y="1000"  />

      
      <glyph glyph-name="uni0104" unicode="&#x0104;" d="M515 0L480 134L248 134L212 0L0 0L233 717L490 717L726 0L515 0M409 409Q404 428 395 463.50Q386 499 377 537Q368 575 363 599Q359 575 350.50 539Q342 503 333.50 468Q325 433 319 409L288 292L440 292L409 409M613-97Q613-115 623.50-122.50Q634-130 651-130Q664-130 681.50-126.50Q699-123 709-119L709-227Q693-232 672-236Q651-240 624-240Q567-240 528-209.50Q489-179 489-127Q489-93 512.50-56.50Q536-20 603 25L678 0Q644-32 628.50-53Q613-74 613-97Z"  horiz-adv-x="726" vert-adv-y="1000"  />

      
      <glyph glyph-name="uni0105" unicode="&#x0105;" d="M336 563Q441 563 500 511Q559 459 559 363L559 0L427 0L390 73L386 73Q363 44 338.50 25.50Q314 7 282-1.50Q250-10 204-10Q132-10 84 34Q36 78 36 169Q36 258 97.50 301Q159 344 276 349L368 352L368 360Q368 397 350 412.50Q332 428 301 428Q268 428 228 416.50Q188 405 147 387L92 513Q140 538 200.50 550.50Q261 563 336 563M325 245Q273 243 251.50 226.50Q230 210 230 180Q230 152 245 138.50Q260 125 285 125Q320 125 344.50 147Q369 169 369 204L369 247L325 245M466-97Q466-115 476.50-122.50Q487-130 504-130Q517-130 534.50-126.50Q552-123 562-119L562-227Q546-232 525-236Q504-240 477-240Q420-240 381-209.50Q342-179 342-127Q342-93 365.50-56.50Q389-20 456 25L531 0Q497-32 481.50-53Q466-74 466-97Z"  horiz-adv-x="623" vert-adv-y="1000"  />

      
      <glyph glyph-name="uni0106" unicode="&#x0106;" d="M395 566Q327 566 288 510Q249 454 249 354Q249 253 288 200.50Q327 148 406 148Q453 148 497.50 161Q542 174 587 193L587 30Q540 9 490.50-0.50Q441-10 385-10Q269-10 195 36Q121 82 86 164.50Q51 247 51 355Q51 463 91 546Q131 629 208.50 676.50Q286 724 397 724Q449 724 506 712Q563 700 618 674L559 522Q520 541 480 553.50Q440 566 395 566M603 917Q585 903 558 882.50Q531 862 500 840.50Q469 819 440.50 799.50Q412 780 392 767L265 767L265 781Q282 800 306 825.50Q330 851 354 878Q378 905 394 927L603 927L603 917Z"  horiz-adv-x="649" vert-adv-y="1000"  />

      
      <glyph glyph-name="uni0107" unicode="&#x0107;" d="M318-10Q192-10 117 58Q42 126 42 274Q42 375 80 438.50Q118 502 183.50 532.50Q249 563 333 563Q384 563 429.50 552Q475 541 514 521L458 380Q424 395 394.50 404Q365 413 333 413Q290 413 263 379Q236 345 236 275Q236 203 263.50 172.50Q291 142 334 142Q375 142 416.50 155Q458 168 495 191L495 39Q461 17 418 3.50Q375-10 318-10M531 756Q513 742 486 721.50Q459 701 428 679.50Q397 658 368.50 638.50Q340 619 320 606L193 606L193 620Q210 639 234 664.50Q258 690 282 717Q306 744 322 766L531 766L531 756Z"  horiz-adv-x="539" vert-adv-y="1000"  />

      
      <glyph glyph-name="uni0108" unicode="&#x0108;" d="M395 566Q327 566 288 510Q249 454 249 354Q249 253 288 200.50Q327 148 406 148Q453 148 497.50 161Q542 174 587 193L587 30Q540 9 490.50-0.50Q441-10 385-10Q269-10 195 36Q121 82 86 164.50Q51 247 51 355Q51 463 91 546Q131 629 208.50 676.50Q286 724 397 724Q449 724 506 712Q563 700 618 674L559 522Q520 541 480 553.50Q440 566 395 566M463 927Q479 904 501.50 876.50Q524 849 547.50 823.50Q571 798 588 781L588 767L464 767Q438 782 415 800Q392 818 366 840Q340 818 318.50 801Q297 784 271 767L145 767L145 781Q164 799 187.50 824.50Q211 850 233.50 877Q256 904 271 927L463 927Z"  horiz-adv-x="649" vert-adv-y="1000"  />

      
      <glyph glyph-name="uni0109" unicode="&#x0109;" d="M318-10Q192-10 117 58Q42 126 42 274Q42 375 80 438.50Q118 502 183.50 532.50Q249 563 333 563Q384 563 429.50 552Q475 541 514 521L458 380Q424 395 394.50 404Q365 413 333 413Q290 413 263 379Q236 345 236 275Q236 203 263.50 172.50Q291 142 334 142Q375 142 416.50 155Q458 168 495 191L495 39Q461 17 418 3.50Q375-10 318-10M391 766Q407 743 429.50 715.50Q452 688 475.50 662.50Q499 637 516 620L516 606L392 606Q366 621 343 639Q320 657 294 679Q268 657 246.50 640Q225 623 199 606L73 606L73 620Q92 638 115.50 663.50Q139 689 161.50 716Q184 743 199 766L391 766Z"  horiz-adv-x="539" vert-adv-y="1000"  />

      
      <glyph glyph-name="uni010A" unicode="&#x010A;" d="M395 566Q327 566 288 510Q249 454 249 354Q249 253 288 200.50Q327 148 406 148Q453 148 497.50 161Q542 174 587 193L587 30Q540 9 490.50-0.50Q441-10 385-10Q269-10 195 36Q121 82 86 164.50Q51 247 51 355Q51 463 91 546Q131 629 208.50 676.50Q286 724 397 724Q449 724 506 712Q563 700 618 674L559 522Q520 541 480 553.50Q440 566 395 566M366 937Q407 937 437.50 920Q468 903 468 852Q468 803 437.50 785.50Q407 768 366 768Q324 768 294.50 785.50Q265 803 265 852Q265 903 294.50 920Q324 937 366 937Z"  horiz-adv-x="649" vert-adv-y="1000"  />

      
      <glyph glyph-name="uni010B" unicode="&#x010B;" d="M318-10Q192-10 117 58Q42 126 42 274Q42 375 80 438.50Q118 502 183.50 532.50Q249 563 333 563Q384 563 429.50 552Q475 541 514 521L458 380Q424 395 394.50 404Q365 413 333 413Q290 413 263 379Q236 345 236 275Q236 203 263.50 172.50Q291 142 334 142Q375 142 416.50 155Q458 168 495 191L495 39Q461 17 418 3.50Q375-10 318-10M294 776Q335 776 365.50 759Q396 742 396 691Q396 642 365.50 624.50Q335 607 294 607Q252 607 222.50 624.50Q193 642 193 691Q193 742 222.50 759Q252 776 294 776Z"  horiz-adv-x="539" vert-adv-y="1000"  />

      
      <glyph glyph-name="uni010C" unicode="&#x010C;" d="M395 566Q327 566 288 510Q249 454 249 354Q249 253 288 200.50Q327 148 406 148Q453 148 497.50 161Q542 174 587 193L587 30Q540 9 490.50-0.50Q441-10 385-10Q269-10 195 36Q121 82 86 164.50Q51 247 51 355Q51 463 91 546Q131 629 208.50 676.50Q286 724 397 724Q449 724 506 712Q563 700 618 674L559 522Q520 541 480 553.50Q440 566 395 566M271 767Q256 790 233.50 817Q211 844 187.50 869.50Q164 895 145 913L145 927L271 927Q297 911 318.50 894Q340 877 366 854Q392 877 415 894.50Q438 912 464 927L588 927L588 913Q571 896 547.50 870.50Q524 845 501.50 817.50Q479 790 463 767L271 767Z"  horiz-adv-x="649" vert-adv-y="1000"  />

      
      <glyph glyph-name="uni010D" unicode="&#x010D;" d="M318-10Q192-10 117 58Q42 126 42 274Q42 375 80 438.50Q118 502 183.50 532.50Q249 563 333 563Q384 563 429.50 552Q475 541 514 521L458 380Q424 395 394.50 404Q365 413 333 413Q290 413 263 379Q236 345 236 275Q236 203 263.50 172.50Q291 142 334 142Q375 142 416.50 155Q458 168 495 191L495 39Q461 17 418 3.50Q375-10 318-10M199 606Q184 629 161.50 656Q139 683 115.50 708.50Q92 734 73 752L73 766L199 766Q225 750 246.50 733Q268 716 294 693Q320 716 343 733.50Q366 751 392 766L516 766L516 752Q499 735 475.50 709.50Q452 684 429.50 656.50Q407 629 391 606L199 606Z"  horiz-adv-x="539" vert-adv-y="1000"  />

      
      <glyph glyph-name="uni010E" unicode="&#x010E;" d="M683 372Q683 248 636.50 165Q590 82 506 41Q422 0 308 0L77 0L77 714L324 714Q497 714 590 626Q683 538 683 372M483 365Q483 558 326 558L270 558L270 158L313 158Q401 158 442 209Q483 260 483 365M273 767Q258 790 235.50 817Q213 844 189.50 869.50Q166 895 147 913L147 927L273 927Q299 911 320.50 894Q342 877 368 854Q394 877 417 894.50Q440 912 466 927L590 927L590 913Q573 896 549.50 870.50Q526 845 503.50 817.50Q481 790 465 767L273 767Z"  horiz-adv-x="734" vert-adv-y="1000"  />

      
      <glyph glyph-name="uni010F" unicode="&#x010F;" d="M814 749Q793 712 774 678Q755 644 727 600L613 600L613 614Q621 643 629 685.50Q637 728 641 760L814 760L814 749M238-10Q153-10 97.50 63Q42 136 42 276Q42 418 98.50 490.50Q155 563 245 563Q301 563 334.50 540Q368 517 390 482L394 482Q390 503 387.50 540Q385 577 385 612L385 760L577 760L577 0L433 0L392 70L385 70Q365 37 330 13.50Q295-10 238-10M316 141Q362 141 381 170Q400 199 401 259L401 274Q401 339 382.50 374Q364 409 314 409Q280 409 257.50 376Q235 343 235 273Q235 204 257.50 172.50Q280 141 316 141Z"  horiz-adv-x="643" vert-adv-y="1000"  />

      
      <glyph glyph-name="uni0110" unicode="&#x0110;" d="M324 714Q497 714 590 626Q683 538 683 372Q683 248 636.50 165Q590 82 506 41Q422 0 308 0L77 0L77 275L15 275L15 431L77 431L77 714L324 714M326 558L270 558L270 431L373 431L373 275L270 275L270 158L313 158Q401 158 442 209Q483 260 483 365Q483 558 326 558Z"  horiz-adv-x="734" vert-adv-y="1000"  />

      
      <glyph glyph-name="uni0111" unicode="&#x0111;" d="M230-10Q148-10 95 57Q42 124 42 251Q42 386 100 450Q158 514 248 514Q304 514 339 491Q374 468 396 434L400 434Q397 446 391 483Q385 520 385 565L385 570L272 570L272 688L385 688L385 760L577 760L577 688L653 688L653 570L577 570L577 0L421 0L378 70L371 70Q350 37 316.50 13.50Q283-10 230-10M326 141Q367 141 383.50 165Q400 189 401 238L401 250Q401 303 379.50 331.50Q358 360 323 360Q293 360 273 335.50Q253 311 253 249Q253 207 270.50 174Q288 141 326 141Z"  horiz-adv-x="663" vert-adv-y="1000"  />

      
      <glyph glyph-name="uni0112" unicode="&#x0112;" d="M501 0L77 0L77 714L501 714L501 559L270 559L270 447L484 447L484 292L270 292L270 157L501 157L501 0M470 882L470 767L115 767L115 882L470 882Z"  horiz-adv-x="549" vert-adv-y="1000"  />

      
      <glyph glyph-name="uni0113" unicode="&#x0113;" d="M315 563Q436 563 506 500Q576 437 576 310L576 225L235 225Q237 182 267.50 154Q298 126 356 126Q408 126 451 136Q494 146 540 168L540 31Q500 10 452.50 0Q405-10 333-10Q249-10 183.50 19.50Q118 49 80 112Q42 175 42 273Q42 373 76.50 437Q111 501 172.50 532Q234 563 315 563M322 433Q288 433 265.50 412Q243 391 239 345L403 345Q402 382 381.50 407.50Q361 433 322 433M490 721L490 606L135 606L135 721L490 721Z"  horiz-adv-x="618" vert-adv-y="1000"  />

      
      <glyph glyph-name="uni0114" unicode="&#x0114;" d="M501 0L77 0L77 714L501 714L501 559L270 559L270 447L484 447L484 292L270 292L270 157L501 157L501 0M489 948Q484 866 432.50 816.50Q381 767 290 767Q195 767 146.50 815.50Q98 864 94 948L197 948Q208 906 228.50 895Q249 884 290 884Q322 884 347 896.50Q372 909 382 948L489 948Z"  horiz-adv-x="549" vert-adv-y="1000"  />

      
      <glyph glyph-name="uni0115" unicode="&#x0115;" d="M315 563Q436 563 506 500Q576 437 576 310L576 225L235 225Q237 182 267.50 154Q298 126 356 126Q408 126 451 136Q494 146 540 168L540 31Q500 10 452.50 0Q405-10 333-10Q249-10 183.50 19.50Q118 49 80 112Q42 175 42 273Q42 373 76.50 437Q111 501 172.50 532Q234 563 315 563M322 433Q288 433 265.50 412Q243 391 239 345L403 345Q402 382 381.50 407.50Q361 433 322 433M509 787Q504 705 452.50 655.50Q401 606 310 606Q215 606 166.50 654.50Q118 703 114 787L217 787Q228 745 248.50 734Q269 723 310 723Q342 723 367 735.50Q392 748 402 787L509 787Z"  horiz-adv-x="618" vert-adv-y="1000"  />

      
      <glyph glyph-name="uni0116" unicode="&#x0116;" d="M501 0L77 0L77 714L501 714L501 559L270 559L270 447L484 447L484 292L270 292L270 157L501 157L501 0M290 937Q331 937 361.50 920Q392 903 392 852Q392 803 361.50 785.50Q331 768 290 768Q248 768 218.50 785.50Q189 803 189 852Q189 903 218.50 920Q248 937 290 937Z"  horiz-adv-x="549" vert-adv-y="1000"  />

      
      <glyph glyph-name="uni0117" unicode="&#x0117;" d="M315 563Q436 563 506 500Q576 437 576 310L576 225L235 225Q237 182 267.50 154Q298 126 356 126Q408 126 451 136Q494 146 540 168L540 31Q500 10 452.50 0Q405-10 333-10Q249-10 183.50 19.50Q118 49 80 112Q42 175 42 273Q42 373 76.50 437Q111 501 172.50 532Q234 563 315 563M322 433Q288 433 265.50 412Q243 391 239 345L403 345Q402 382 381.50 407.50Q361 433 322 433M310 776Q351 776 381.50 759Q412 742 412 691Q412 642 381.50 624.50Q351 607 310 607Q268 607 238.50 624.50Q209 642 209 691Q209 742 238.50 759Q268 776 310 776Z"  horiz-adv-x="618" vert-adv-y="1000"  />

      
      <glyph glyph-name="uni0118" unicode="&#x0118;" d="M501 0L77 0L77 714L501 714L501 559L270 559L270 447L484 447L484 292L270 292L270 157L501 157L501 0M407-97Q407-115 417.50-122.50Q428-130 445-130Q458-130 475.50-126.50Q493-123 503-119L503-227Q487-232 466-236Q445-240 418-240Q361-240 322-209.50Q283-179 283-127Q283-93 306.50-56.50Q330-20 397 25L472 0Q438-32 422.50-53Q407-74 407-97Z"  horiz-adv-x="549" vert-adv-y="1000"  />

      
      <glyph glyph-name="uni0119" unicode="&#x0119;" d="M447-91Q447-110 459-120Q471-130 488-130Q503-130 518-126.50Q533-123 543-119L543-227Q527-232 506-236Q485-240 458-240Q401-240 362-209.50Q323-179 323-127Q323-100 338-71Q353-42 393-8Q366-10 333-10Q249-10 183.50 19.50Q118 49 80 112Q42 175 42 273Q42 373 76.50 437Q111 501 172.50 532Q234 563 315 563Q436 563 506 500Q576 437 576 310L576 225L235 225Q237 182 267.50 154Q298 126 356 126Q408 126 451 136Q494 146 540 168L540 31Q500-3 480-25Q460-47 453.50-61.50Q447-76 447-91M322 433Q288 433 265.50 412Q243 391 239 345L403 345Q402 382 381.50 407.50Q361 433 322 433Z"  horiz-adv-x="618" vert-adv-y="1000"  />

      
      <glyph glyph-name="uni011A" unicode="&#x011A;" d="M501 0L77 0L77 714L501 714L501 559L270 559L270 447L484 447L484 292L270 292L270 157L501 157L501 0M195 767Q180 790 157.50 817Q135 844 111.50 869.50Q88 895 69 913L69 927L195 927Q221 911 242.50 894Q264 877 290 854Q316 877 339 894.50Q362 912 388 927L512 927L512 913Q495 896 471.50 870.50Q448 845 425.50 817.50Q403 790 387 767L195 767Z"  horiz-adv-x="549" vert-adv-y="1000"  />

      
      <glyph glyph-name="uni011B" unicode="&#x011B;" d="M315 563Q436 563 506 500Q576 437 576 310L576 225L235 225Q237 182 267.50 154Q298 126 356 126Q408 126 451 136Q494 146 540 168L540 31Q500 10 452.50 0Q405-10 333-10Q249-10 183.50 19.50Q118 49 80 112Q42 175 42 273Q42 373 76.50 437Q111 501 172.50 532Q234 563 315 563M322 433Q288 433 265.50 412Q243 391 239 345L403 345Q402 382 381.50 407.50Q361 433 322 433M215 606Q200 629 177.50 656Q155 683 131.50 708.50Q108 734 89 752L89 766L215 766Q241 750 262.50 733Q284 716 310 693Q336 716 359 733.50Q382 751 408 766L532 766L532 752Q515 735 491.50 709.50Q468 684 445.50 656.50Q423 629 407 606L215 606Z"  horiz-adv-x="618" vert-adv-y="1000"  />

      
      <glyph glyph-name="uni011C" unicode="&#x011C;" d="M364 418L672 418L672 33Q617 14 545.50 2Q474-10 396-10Q293-10 215.50 30Q138 70 94.50 152Q51 234 51 359Q51 471 94 553Q137 635 220.50 679.50Q304 724 426 724Q493 724 553 711.50Q613 699 657 679L596 528Q558 547 516 556.50Q474 566 427 566Q363 566 324 537Q285 508 267.50 460Q250 412 250 354Q250 254 292 201.50Q334 149 412 149Q429 149 453.50 151.50Q478 154 491 157L491 269L364 269L364 418M499 927Q515 904 537.50 876.50Q560 849 583.50 823.50Q607 798 624 781L624 767L500 767Q474 782 451 800Q428 818 402 840Q376 818 354.50 801Q333 784 307 767L181 767L181 781Q200 799 223.50 824.50Q247 850 269.50 877Q292 904 307 927L499 927Z"  horiz-adv-x="740" vert-adv-y="1000"  />

      
      <glyph glyph-name="uni011D" unicode="&#x011D;" d="M243 563Q301 563 336.50 540.50Q372 518 394 485L398 485L412 553L577 553L577-1Q577-118 504.50-179Q432-240 282-240Q215-240 164-233Q113-226 66-208L66-49Q116-70 161-80.50Q206-91 271-91Q386-91 386-9L386 1Q386 30 392 70L386 70Q367 37 332 13.50Q297-10 240-10Q152-10 97 63Q42 136 42 276Q42 416 98 489.50Q154 563 243 563M315 415Q236 415 236 273Q236 201 256 169.50Q276 138 318 138Q365 138 383 167.50Q401 197 401 256L401 279Q401 344 383.50 379.50Q366 415 315 415M412 766Q428 743 450.50 715.50Q473 688 496.50 662.50Q520 637 537 620L537 606L413 606Q387 621 364 639Q341 657 315 679Q289 657 267.50 640Q246 623 220 606L94 606L94 620Q113 638 136.50 663.50Q160 689 182.50 716Q205 743 220 766L412 766Z"  horiz-adv-x="643" vert-adv-y="1000"  />

      
      <glyph glyph-name="uni011E" unicode="&#x011E;" d="M364 418L672 418L672 33Q617 14 545.50 2Q474-10 396-10Q293-10 215.50 30Q138 70 94.50 152Q51 234 51 359Q51 471 94 553Q137 635 220.50 679.50Q304 724 426 724Q493 724 553 711.50Q613 699 657 679L596 528Q558 547 516 556.50Q474 566 427 566Q363 566 324 537Q285 508 267.50 460Q250 412 250 354Q250 254 292 201.50Q334 149 412 149Q429 149 453.50 151.50Q478 154 491 157L491 269L364 269L364 418M601 948Q596 866 544.50 816.50Q493 767 402 767Q307 767 258.50 815.50Q210 864 206 948L309 948Q320 906 340.50 895Q361 884 402 884Q434 884 459 896.50Q484 909 494 948L601 948Z"  horiz-adv-x="740" vert-adv-y="1000"  />

      
      </font>
</defs>
</svg>
